Files
2023-06-15 19:05:10 -05:00

315 lines
11 KiB
Plaintext

//TJADB Project
TITLE:Armor Break
TITLEJA:Armor Break
SUBTITLE:--enogu
SUBTITLEJA:えのぐ
BPM:136
WAVE:Armor Break.ogg
OFFSET:-4.435
DEMOSTART:50.317
COURSE:Oni
LEVEL:7
BALLOON:10,2,2,2,2
SCOREINIT:670
SCOREDIFF:170
#START
000000000000000000000000000000000000000000000000,
700000000000000000000000800000000000000000000000,
#GOGOSTART
100100000200000100000000100010000200000100200100,
200000100200000200000000100000000200000200000000,
100100000200000100000000100010000200000100200100,
200000100200000200000000500000000000000008000000,
100100000200000100000000100010000200000100200100,
200000100200000200000000100000000200000200000000,
100100000200000100000000100010000200000100200100,
200000000000000000000000000000000000000000000000,
#GOGOEND
100100100000200200200000100100100100200000200000,
000000000000600008000000600008000000600008000000,
100100100000200200200000300000100000400000200000,
000000000000600008000000400000000000400000000000,
100100100000200200200000100100100100200000200000,
000000000000600008000000600008000000600008000000,
100100000100000000000000200200000200000000000000,
100200000200100200100200100000000000000000000000,
200000200000200000200200000200000200200000200000,
200000200000200000200200000200200000400000000000,
000000100200100000200000200100200100000000000000,
000000100200100000200000200100200100000000000000,
100000100000100000100100000100000100100000100000,
100000100000100000100100000100100000300000000000,
000000100200100000200000200100200100000000000000,
000000100200100000200000100000200000100000200000,
#GOGOSTART
300000200000300000200000300000000600000008000000,
400000100000400000100000400000000700000000800000,
100100100100200000000000100100100100200000000000,
100200000200100200100000100000000000200000000000,
300000200000300000200000300000000600000008000000,
400000100000400000100000400000000700000000800000,
100200100200100000000000200100200100200000000000,
100200100200100200100200100000000000000000000000,
300000200000300000200000300000000600000008000000,
400000100000400000100000400000000700000000800000,
100100100100200000000000100100100100200000000000,
100200000200100200100000100000000000200000000000,
300000200000300000200000300000000600000008000000,
400000100000400000100000400000000700000000800000,
100200100200100000000000200100200100200000000000,
#GOGOEND
100200100200100200100200100000000000000000000000,
#GOGOSTART
100100000200000100000000100010000200000100200100,
200000100200000200000000100000000200000200000000,
100200100200100000000000200100200100200000000000,
100200100200100200100200100000000000000000000000,
100100000200000100000000100010000200000100200100,
200000100200000200000000100000000200000200000000,
100100000200000100000000100010000200000100200100,
200000100200000200000000500000000000000008000000,
100000100000100100000100000100000100000000300000,
#GOGOEND
#END
COURSE:Hard
LEVEL:4
BALLOON:8,28,28
#START
000000000000000000000000000000000000000000000000,
700000000000000000000000800000000000000000000000,
#GOGOSTART
100000000100000000000000200000000200000000000000,
100000100100000100000000200000000000000000000000,
100000000100000000000000200000000200000000000000,
100000100100000100000000200000000000000000000000,
100000000100000000000000200000000200000000000000,
100000100100000100000000200000000000000000000000,
100000000100000000000000200000000200000000000000,
300000000000000000000000000000000000000000000000,
#GOGOEND
100000000000200000000000100000100000200000200000,
000000000000300000000000300000000000300000000000,
100000000000200000000000100000100000200000200000,
000000000000300000000000400000000000400000000000,
100000000000200000000000100000100000200000200000,
000000000000300000000000300000000000300000000000,
100000000100000000000000100000000100000000000000,
300000000000300000300000300000000000000000000000,
700000000000000000000000000000000000000000000000,
000000000000000000000000000000000800000000000000,
000000100000100000000000200000200000000000000000,
000000100000100000000000200000200000000000000000,
700000000000000000000000000000000000000000000000,
000000000000000000000000000000000800000000000000,
000000100000100000000000200000200000000000000000,
000000100000100000000000200000000000200000000000,
#GOGOSTART
300000000000300000000000300000000300000000000000,
400000000000400000000000400000000400000000000000,
100000100000200000000000100000100000200000000000,
100000000000200000100000100000000000200000000000,
300000000000300000000000300000000300000000000000,
400000000000400000000000400000000400000000000000,
100000100000200000000000100000100000200000000000,
100000100000100000100000200000000000000000000000,
300000000000300000000000300000000300000000000000,
400000000000400000000000400000000400000000000000,
100000100000200000000000100000100000200000000000,
100000000000200000100000100000000000200000000000,
300000000000300000000000300000000300000000000000,
400000000000400000000000400000000400000000000000,
100000100000200000000000100000100000200000000000,
#GOGOEND
500000000000000000000008000000000000000000000000,
#GOGOSTART
100000000100000000000000200000000200000000000000,
100000100100000100000000200000000000000000000000,
100000100000200000000000100000100000200000000000,
100000100000100000100000200000000000000000000000,
100000000100000000000000200000000200000000000000,
100000100100000100000000200000000000000000000000,
100000000100000000000000200000000200000000000000,
100000100100000100000000200000000000000000000000,
600000000000000000000000000000008000000000300000,
#GOGOEND
#END
COURSE:Normal
LEVEL:4
BALLOON:5,18,18,5,5,5
#START
000000000000000000000000000000000000000000000000,
700000000000000000000000800000000000000000000000,
#GOGOSTART
100000000000000000000000200000000000000000000000,
100000100000000000000000200000000000000000000000,
100000000000000000000000200000000000000000000000,
100000100000000000000000200000000000000000000000,
100000000000000000000000200000000000000000000000,
100000100000000000000000200000000000000000000000,
100000000000000000000000200000000000000000000000,
300000000000000000000000000000000000000000000000,
#GOGOEND
100000000000100000000000100000100000100000100000,
000000000000200000000000200000000000200000000000,
100000000000100000000000100000100000100000100000,
000000000000200000000000200000000000200000000000,
100000000000100000000000100000100000100000100000,
000000000000200000000000200000000000200000000000,
100000000000000000000000100000000000000000000000,
300000000000300000300000300000000000000000000000,
700000000000000000000000000000000000000000000000,
0008,
000000100000100000000000200000000000000000000000,
000000100000100000000000200000000000000000000000,
700000000000000000000000000000000000000000000000,
0008,
000000100000100000000000200000000000000000000000,
000000100000100000000000200000000000200000000000,
#GOGOSTART
300000000000300000000000300000000000000000000000,
400000000000400000000000400000000000000000000000,
100000100000100000000000100000100000100000000000,
500000000000000000000008000000000000000000000000,
300000000000300000000000300000000000000000000000,
400000000000400000000000400000000000000000000000,
100000100000100000000000100000100000100000000000,
700000000000000000000000800000000000000000000000,
300000000000300000000000300000000000000000000000,
400000000000400000000000400000000000000000000000,
100000100000100000000000100000100000100000000000,
500000000000000000000008000000000000000000000000,
300000000000300000000000300000000000000000000000,
400000000000400000000000400000000000000000000000,
100000100000100000000000100000100000100000000000,
#GOGOEND
700000000000000000000000800000000000000000000000,
#GOGOSTART
100000000000000000000000200000000000000000000000,
100000100000000000000000200000000000000000000000,
100000100000100000000000100000100000100000000000,
600000000000000000000008000000000000000000000000,
100000000000000000000000200000000000000000000000,
100000100000000000000000200000000000000000000000,
100000000000000000000000200000000000000000000000,
100000100000000000000000200000000000000000000000,
700000000000000000000000800000000000000000300000,
#GOGOEND
#END
COURSE:Easy
LEVEL:3
BALLOON:4,14,14,4,4,4
#START
000000000000000000000000000000000000000000000000,
700000000000000000000000800000000000000000000000,
#GOGOSTART
100000000000000000000000100000000000000000000000,
100000000000000000000000000000000000000000000000,
200000000000000000000000200000000000000000000000,
200000000000000000000000000000000000000000000000,
100000000000000000000000100000000000000000000000,
100000000000000000000000000000000000000000000000,
200000000000000000000000200000000000000000000000,
200000000000000000000000000000000000000000000000,
#GOGOEND
100000000000100000000000100000000000100000000000,
000000000000200000000000200000000000000000000000,
100000000000100000000000100000000000100000000000,
000000000000200000000000200000000000000000000000,
100000000000100000000000100000000000100000000000,
000000000000200000000000200000000000000000000000,
100000000000000000000000100000000000000000000000,
300000000000300000000000300000000000000000000000,
700000000000000000000000000000000000000000000000,
0008,
000000000000000000000000200000000000000000000000,
000000000000000000000000200000000000000000000000,
700000000000000000000000000000000000000000000000,
0008,
000000000000000000000000200000000000000000000000,
000000000000000000000000200000000000000000000000,
#GOGOSTART
300000000000300000000000300000000000000000000000,
400000000000400000000000400000000000000000000000,
100000000000000000000000100000000000000000000000,
500000000000000000000008000000000000000000000000,
300000000000300000000000300000000000000000000000,
400000000000400000000000400000000000000000000000,
100000000000000000000000100000000000000000000000,
700000000000000000000000800000000000000000000000,
300000000000300000000000300000000000000000000000,
400000000000400000000000400000000000000000000000,
100000000000000000000000100000000000000000000000,
500000000000000000000008000000000000000000000000,
300000000000300000000000300000000000000000000000,
400000000000400000000000400000000000000000000000,
100000000000000000000000100000000000000000000000,
#GOGOEND
700000000000000000000000800000000000000000000000,
#GOGOSTART
100000000000000000000000100000000000000000000000,
100000000000000000000000000000000000000000000000,
300000000000000000000000300000000000000000000000,
600000000000000000000008000000000000000000000000,
100000000000000000000000100000000000000000000000,
100000000000000000000000000000000000000000000000,
200000000000000000000000200000000000000000000000,
200000000000000000000000000000000000000000000000,
700000000000000000000000800000000000000000300000,
#GOGOEND
#END