Files
2023-06-15 19:15:39 -05:00

1505 lines
34 KiB
Plaintext

//TJADB Project
TITLE:Atarashii Hikari
TITLEJA:新しい光
SUBTITLE:--9mm Parabellum Bullet
SUBTITLEJA:9mm Parabellum bullet
BPM:181.76
WAVE:Atarashii Hikari.ogg
OFFSET:-1.615
DEMOSTART:81.576
COURSE:Oni
LEVEL:9
BALLOON:5
SCOREINIT:280
SCOREDIFF:80
#START
#GOGOSTART
#SCROLL 1.02
300000000000200000000000200000000000200000000000,
#BPMCHANGE 178.44
#SCROLL 1.04
200200100100100100200200100100100100200200100100,
#BPMCHANGE 182.79
#SCROLL 1.01
100000000000200000000000200000000000200000000000,
#BPMCHANGE 178.74
#SCROLL 1.04
200200100100100100200200100100100100200200100100,
#BPMCHANGE 175.13
#SCROLL 1.06
100000000000
#BPMCHANGE 174.04
100000000000
#BPMCHANGE 181.91
#SCROLL 1.02
100000000000
#BPMCHANGE 178.45
#SCROLL 1.04
100000000000,
#BPMCHANGE 187.97
#SCROLL 0.98
100000000000
#BPMCHANGE 180.74
#SCROLL 1.02
100000000000100000000000
#BPMCHANGE 189.23
#SCROLL 0.98
100000000000,
#GOGOEND
#BPMCHANGE 176.22
#SCROLL 1.05
300000000000000000000000000000000000000000000000,
#BPMCHANGE 177.89
#SCROLL 1.04
400000000400000000400000000000100100100000300000,
#BPMCHANGE 180.45
#SCROLL 1.03
300000200100000100200000100000100100100100100000,
#BPMCHANGE 179.59
100000200100000100200000100100100000100100100100,
#BPMCHANGE 179.87
100000200100000100200000100000100100100100100000,
#BPMCHANGE 180.16
100000200100000100200000100100100000100100100100,
#BPMCHANGE 180.45
100000200100000100200000100000100100100100100000,
#BPMCHANGE 179.3
100000200100000100200000100100100000100100100100,
#BPMCHANGE 183.09
#SCROLL 1.01
200000200100000100200000100000100100100100100000,
#BPMCHANGE 189.23
#SCROLL 0.98
100100100100100100100100
#BPMCHANGE 174.05
#SCROLL 1.06
100000000000400000400000,
#BPMCHANGE 175.95
#SCROLL 1.05
100000200100000100200000100000100100100100100000,
#BPMCHANGE 179.87
#SCROLL 1.03
100000200100000100200000100100100000100100100100,
#BPMCHANGE 180.16
100000200100000100200000100000100100100100100000,
100000200100000100200000100100100000100100100100,
#BPMCHANGE 180.31
100000200100000100200000100000100100100100100000,
#BPMCHANGE 179.59
100000200100000100200000100100100000100100100100,
#BPMCHANGE 180.02
200000200100000100200000100000100100100100100000,
#BPMCHANGE 185.19
#SCROLL 1
100100200200100100200000100100200200100100200000,
#BPMCHANGE 182.2
#SCROLL 1.02
300000000000000000000000000000000000000000000000,
#BPMCHANGE 174.05
#SCROLL 1.06
000000000000000000000000000000000000000000400000,
#BPMCHANGE 179.44
#SCROLL 1.03
100000200000100100200000100000200000100100200000,
100000200000100100200000100000200000100100200100,
#BPMCHANGE 185.63
#SCROLL 1
100000200000100100200000100000200000100100200000,
#BPMCHANGE 177.81
#SCROLL 1.04
200200100100100100200200100100100100200200100100,
#BPMCHANGE 180.09
#SCROLL 1.03
100000200000100100200000100000200000100100200000,
#BPMCHANGE 176.63
#SCROLL 1.05
100000200000100100200000100000200000100100200100,
#BPMCHANGE 184.44
#SCROLL 1
100000200000100100200000100000200000100100200000,
#BPMCHANGE 178.45
#SCROLL 1.04
200200100100100100200200100100100100200200100100,
#BPMCHANGE 177.19
100000200100000100200000100000200100000100200000,
#BPMCHANGE 183.06
#SCROLL 1.01
200000200100000100200000200000200100000100200000,
#BPMCHANGE 179.73
#SCROLL 1.03
100100100100100100100100100100100100100100100100,
#BPMCHANGE 179.88
100100100100100100100100100100100100100100100100,
#BPMCHANGE 177.26
#SCROLL 1.04
100000200100000100200000100000200100000100200000,
#BPMCHANGE 180.81
#SCROLL 1.02
200000200100000100200000200000200100000100200000,
#BPMCHANGE 179.59
#SCROLL 1.03
100100100100100100100100100100100100100100100100,
#BPMCHANGE 179.87
100100100100100100100100100100100100100100100100,
#BPMCHANGE 173.11
#SCROLL 1.07
100000000000
#BPMCHANGE 176.64
#SCROLL 1.05
100000000000
#BPMCHANGE 191.19
#SCROLL 0.97
100000000000
#BPMCHANGE 195.81
#SCROLL 0.94
100000100100,
#BPMCHANGE 177.03
#SCROLL 1.05
100000000000
#BPMCHANGE 181.91
#SCROLL 1.02
000000000000
#BPMCHANGE 161.12
#SCROLL 1.15
000000000000
#BPMCHANGE 214.84
#SCROLL 0.86
000000100100,
#BPMCHANGE 174.99
#SCROLL 1.06
100000200000100100200000100000200000100100200000,
#BPMCHANGE 179.58
#SCROLL 1.03
100000200000100100200000100000200000100100200100,
#BPMCHANGE 185.63
#SCROLL 1
100000200000100100200000100000200000100100200000,
#BPMCHANGE 180.45
#SCROLL 1.03
200200100100100100200200
#BPMCHANGE 169.85
#SCROLL 1.09
100100100100200200100100,
#BPMCHANGE 181.91
#SCROLL 1.02
100000200000100100200000100000200000100100200000,
#BPMCHANGE 178.03
#SCROLL 1.04
100000200000100100200000100000200000100100200100,
#BPMCHANGE 185.95
#SCROLL 0.99
100000200000100100200000100000200000100100200000,
#BPMCHANGE 177.89
#SCROLL 1.04
200200100100100100200200
#BPMCHANGE 174.04
#SCROLL 1.06
100100100100200200100100,
#BPMCHANGE 178.72
#SCROLL 1.04
100000200100000100200000100000200100000100200000,
#BPMCHANGE 181.05
#SCROLL 1.02
200000200100000100200000200000200100000100200000,
#BPMCHANGE 180.16
#SCROLL 1.03
100100100100100100100100100100100100100100100100,
#BPMCHANGE 181.03
#SCROLL 1.02
100100100100100100100100100100100100100100100100,
#BPMCHANGE 177.32
#SCROLL 1.04
100000200100000100200000100000200100000100200000,
#BPMCHANGE 180.16
#SCROLL 1.03
200000200100000100200000200000200100000100200000,
#BPMCHANGE 179.87
100100100100100100100100100100100100100100100100,
#BPMCHANGE 183.09
#SCROLL 1.01
100100100100100100100100100100100100100100100100,
#GOGOSTART
#BPMCHANGE 171.92
#SCROLL 1.08
100000000000
#BPMCHANGE 185.81
#SCROLL 1
200000000000
#BPMCHANGE 186.57
#SCROLL 0.99
200000000000200000000000,
#BPMCHANGE 180.16
#SCROLL 1.03
200200100100100100200200100100100100200200100100,
#BPMCHANGE 174.04
#SCROLL 1.06
100000000000
#BPMCHANGE 179.6
#SCROLL 1.03
200000000000
#BPMCHANGE 177.88
#SCROLL 1.04
200000000000
#BPMCHANGE 179.01
#SCROLL 1.03
200000000000,
#BPMCHANGE 179.56
200200100100100100200200100100100100
#BPMCHANGE 179.58
200200100100,
#BPMCHANGE 176.22
#SCROLL 1.05
100000000000
#BPMCHANGE 180.17
#SCROLL 1.03
100000000000100000000000
#BPMCHANGE 186.72
#SCROLL 0.99
100000000000,
#BPMCHANGE 177.33
#SCROLL 1.04
100000000000100000000000100000000000
#BPMCHANGE 191.78
#SCROLL 0.96
100000000000,
#BPMCHANGE 180.16
#SCROLL 1.03
200200100100100100200200100100100100200200100200,
#BPMCHANGE 179.31
200200100100100100200200100100100100200200100200,
#BPMCHANGE 176.4
#SCROLL 1.05
200000100000000000100100
#BPMCHANGE 190.14
#SCROLL 0.97
200000100100
#BPMCHANGE 180.69
#SCROLL 1.02
100000200100,
#BPMCHANGE 179.02
#SCROLL 1.03
100000100000000000100100200000100200100000200100,
#BPMCHANGE 177.32
#SCROLL 1.04
100000100000000000100100200000100100100000200100,
#BPMCHANGE 181.63
#SCROLL 1.02
100000100000000000100100200000100200100000200100,
#BPMCHANGE 177.89
#SCROLL 1.04
100000100000100100100000100000100000100100100000,
#BPMCHANGE 183.68
#SCROLL 1.01
100000100100100100100000100000100100100100100000,
#GOGOEND
#BPMCHANGE 185.5
#SCROLL 1
300000000000000000000000
#BPMCHANGE 170.88
#SCROLL 1.08
000000000000000000000000,
#BPMCHANGE 178.74
#SCROLL 1.04
400000000400000000400000000000100100100000300000,
#MEASURE 2/4
#BPMCHANGE 183.68
#SCROLL 1.01
300000100100100100100100,
#MEASURE 4/4
#BPMCHANGE 175.67
#SCROLL 1.05
100000200100000100200000100000100100100100100000,
#BPMCHANGE 179.88
#SCROLL 1.03
100000200100000100200000100100100000100100100100,
#BPMCHANGE 180.16
100000200100000100200000100000100100100100100000,
#BPMCHANGE 179.87
100000200100000100200000100100100000100100100100,
#BPMCHANGE 180.16
100000200100000100200000100000100100100100100000,
#BPMCHANGE 179.88
100000200100000100200000100100100000100100100100,
#BPMCHANGE 180.16
200000200100000100200000100000100100100100100000,
#BPMCHANGE 189.23
#SCROLL 0.98
100100100100100100100100
#BPMCHANGE 169.34
#SCROLL 1.09
100000000000400000400000,
#BPMCHANGE 181.32
#SCROLL 1.02
100000200100000100200000100000100100200100100000,
#BPMCHANGE 179.87
#SCROLL 1.03
100000200100000100200000100100100000100100100100,
#BPMCHANGE 180.16
200000200100000100200000100000100100200100100000,
#BPMCHANGE 181.63
#SCROLL 1.02
100000200100000100200000100100200200100100200000,
#BPMCHANGE 184.25
#SCROLL 1
400000000400000000400000
#BPMCHANGE 187.35
#SCROLL 0.99
000400000000100100100100,
#BPMCHANGE 163.93
#SCROLL 1.13
100000400000000400000000
#BPMCHANGE 186.1
#SCROLL 0.99
400000700000000000800000,
#BPMCHANGE 175.4
#SCROLL 1.05
100000200100000100200000100100200200100100200000,
#BPMCHANGE 184.56
#SCROLL 1
100100100100100100200000
#BPMCHANGE 187.69
#SCROLL 0.99
100100100100100100200000,
#BPMCHANGE 175.95
#SCROLL 1.05
100000100000200200100100200200100100200200100000,
#BPMCHANGE 168.06
#SCROLL 1.1
300000000300000000300000
#BPMCHANGE 179.88
#SCROLL 1.03
000000100100200000000000,
#END
COURSE:Hard
LEVEL:8
SCOREINIT:330
SCOREDIFF:100
#START
#GOGOSTART
#SCROLL 1.02
300000000000000000000000000000000000000000000000,
#BPMCHANGE 178.44
#SCROLL 1.04
100100100000100000100100100000100000100000000000,
#BPMCHANGE 182.79
#SCROLL 1.01
300000000000000000000000000000000000000000000000,
#BPMCHANGE 178.74
#SCROLL 1.04
100100100000100000100100100000100000100000000000,
#BPMCHANGE 175.13
#SCROLL 1.06
300000000000
#BPMCHANGE 174.04
100000000000
#BPMCHANGE 181.91
#SCROLL 1.02
100000000000
#BPMCHANGE 178.45
#SCROLL 1.04
100000000000,
#BPMCHANGE 187.97
#SCROLL 0.98
100000000000
#BPMCHANGE 180.74
#SCROLL 1.02
100000000000100000000000
#BPMCHANGE 189.23
#SCROLL 0.98
100000000000,
#GOGOEND
#BPMCHANGE 176.22
#SCROLL 1.05
300000000000000000000000000000000000000000000000,
#BPMCHANGE 177.89
#SCROLL 1.04
400000000400000000400000000000000000000000000000,
#BPMCHANGE 180.45
#SCROLL 1.03
100000100000100100100000100000100000100000000000,
#BPMCHANGE 179.59
100000100000100100100000100000100000100000000000,
#BPMCHANGE 179.87
100000100000100100100000100000100000100000000000,
#BPMCHANGE 180.16
100000100000100100100000100000100000100000000000,
#BPMCHANGE 180.45
100000100000100100100000100000100000100000000000,
#BPMCHANGE 179.3
100000100000100100100000100000100000100000000000,
#BPMCHANGE 183.09
#SCROLL 1.01
100000100000100100100000100000100000100100100000,
#BPMCHANGE 189.23
#SCROLL 0.98
300000000000300000000000
#BPMCHANGE 174.05
#SCROLL 1.06
300000000000400000400000,
#BPMCHANGE 175.95
#SCROLL 1.05
100000100000100100100000100000100000100000000000,
#BPMCHANGE 179.87
#SCROLL 1.03
100000100000100100100000100000100000100000000000,
#BPMCHANGE 180.16
100000100000100100100000100000100000100000000000,
100000100000100100100000100000100000100000000000,
#BPMCHANGE 180.31
100000100000100100100000100000100000100000000000,
#BPMCHANGE 179.59
100000100000100100100000100000100000100000000000,
#BPMCHANGE 180.02
100000100000100100100000100000100000100100100000,
#BPMCHANGE 185.19
#SCROLL 1
300000000000300000000000300000000000000000000000,
#BPMCHANGE 182.2
#SCROLL 1.02
300000000000000000000000000000000000000000000000,
#BPMCHANGE 174.05
#SCROLL 1.06
000000000000000000000000000000000000000000000000,
#BPMCHANGE 179.44
#SCROLL 1.03
100000100000100000000000100000100100100000000000,
100000100000100000000000100000100100100000000000,
#BPMCHANGE 185.63
#SCROLL 1
100000100000100000000000100000100100100000000000,
#BPMCHANGE 177.81
#SCROLL 1.04
100100100000100000100100100000100000100100100000,
#BPMCHANGE 180.09
#SCROLL 1.03
100000100000100000000000100000100100100000000000,
#BPMCHANGE 176.63
#SCROLL 1.05
100000100000100000000000100000100100100000000000,
#BPMCHANGE 184.44
#SCROLL 1
100000100000100000000000100000100100100000000000,
#BPMCHANGE 178.45
#SCROLL 1.04
100100100000100000100100100000100000100100100000,
#BPMCHANGE 177.19
100000000200000000200000200000000200000000200000,
#BPMCHANGE 183.06
#SCROLL 1.01
100000000200000000200000200000000200000000200000,
#BPMCHANGE 179.73
#SCROLL 1.03
100100100000100100100000100100100000100100100000,
#BPMCHANGE 179.88
100100100000100100100000100100100000100100100000,
#BPMCHANGE 177.26
#SCROLL 1.04
100000000200000000200000200000000200000000200000,
#BPMCHANGE 180.81
#SCROLL 1.02
100000000200000000200000200000000200000000200000,
#BPMCHANGE 179.59
#SCROLL 1.03
100100100000100100100000100100100000100100100000,
#BPMCHANGE 179.87
100100100000100100100000100100100000100100100000,
#BPMCHANGE 173.11
#SCROLL 1.07
100000000000
#BPMCHANGE 176.64
#SCROLL 1.05
100000000000
#BPMCHANGE 191.19
#SCROLL 0.97
100000000000
#BPMCHANGE 195.81
#SCROLL 0.94
100000000000,
#BPMCHANGE 177.03
#SCROLL 1.05
300000000000
#BPMCHANGE 181.91
#SCROLL 1.02
000000000000
#BPMCHANGE 161.12
#SCROLL 1.15
000000000000
#BPMCHANGE 214.84
#SCROLL 0.86
000000000000,
#BPMCHANGE 174.99
#SCROLL 1.06
100000100000100000000000100000100100100000000000,
#BPMCHANGE 179.58
#SCROLL 1.03
100000100000100000000000100000100100100000000000,
#BPMCHANGE 185.63
#SCROLL 1
100000100000100000000000100000100100100000000000,
#BPMCHANGE 180.45
#SCROLL 1.03
100100100000100000100100
#BPMCHANGE 169.85
#SCROLL 1.09
100000100000100100100000,
#BPMCHANGE 181.91
#SCROLL 1.02
100000100000100000000000100000100100100000000000,
#BPMCHANGE 178.03
#SCROLL 1.04
100000100000100000000000100000100100100000000000,
#BPMCHANGE 185.95
#SCROLL 0.99
100000100000100000000000100000100100100000000000,
#BPMCHANGE 177.89
#SCROLL 1.04
100100100000100000100100
#BPMCHANGE 174.04
#SCROLL 1.06
100000100000100100100000,
#BPMCHANGE 178.72
#SCROLL 1.04
100000000200000000200000200000000200000000200000,
#BPMCHANGE 181.05
#SCROLL 1.02
100000000200000000200000200000000200000000200000,
#BPMCHANGE 180.16
#SCROLL 1.03
100100100000100100100000100100100000100100100000,
#BPMCHANGE 181.03
#SCROLL 1.02
100100100000100100100000100100100000100100100000,
#BPMCHANGE 177.32
#SCROLL 1.04
100000000200000000200000200000000200000000200000,
#BPMCHANGE 180.16
#SCROLL 1.03
100000000200000000200000200000000200000000200000,
#BPMCHANGE 179.87
100100100000100100100000100100100000100100100000,
#BPMCHANGE 183.09
#SCROLL 1.01
100100100000100100100000100100100000100100100000,
#GOGOSTART
#BPMCHANGE 171.92
#SCROLL 1.08
300000000000
#BPMCHANGE 185.81
#SCROLL 1
000000000000
#BPMCHANGE 186.57
#SCROLL 0.99
000000000000000000000000,
#BPMCHANGE 180.16
#SCROLL 1.03
100100100000100000100100100000100000100000000000,
#BPMCHANGE 174.04
#SCROLL 1.06
300000000000
#BPMCHANGE 179.6
#SCROLL 1.03
000000000000
#BPMCHANGE 177.88
#SCROLL 1.04
000000000000
#BPMCHANGE 179.01
#SCROLL 1.03
000000000000,
#BPMCHANGE 179.56
100100100000100000100100100000100000
#BPMCHANGE 179.58
100000000000,
#BPMCHANGE 176.22
#SCROLL 1.05
300000000000
#BPMCHANGE 180.17
#SCROLL 1.03
100000000000100000000000
#BPMCHANGE 186.72
#SCROLL 0.99
100000000000,
#BPMCHANGE 177.33
#SCROLL 1.04
100000000000100000000000100000000000
#BPMCHANGE 191.78
#SCROLL 0.96
100000000000,
#BPMCHANGE 180.16
#SCROLL 1.03
100100100000100000100100100000100000200000000000,
#BPMCHANGE 179.31
100100100000100000100100100000100000200000000000,
#BPMCHANGE 176.4
#SCROLL 1.05
200000100000000000100000
#BPMCHANGE 190.14
#SCROLL 0.97
200000000000
#BPMCHANGE 180.69
#SCROLL 1.02
200000100000,
#BPMCHANGE 179.02
#SCROLL 1.03
100000100000000000100000200000000000200000100000,
#BPMCHANGE 177.32
#SCROLL 1.04
100000100000000000100000200000000000200000100000,
#BPMCHANGE 181.63
#SCROLL 1.02
100000100000000000100000200000000000200000100000,
#BPMCHANGE 177.89
#SCROLL 1.04
100000100000000000100000200000000000100000100000,
#BPMCHANGE 183.68
#SCROLL 1.01
100000000000100000100000100000000000100100100000,
#GOGOEND
#BPMCHANGE 185.5
#SCROLL 1
300000000000000000000000
#BPMCHANGE 170.88
#SCROLL 1.08
000000000000000000000000,
#BPMCHANGE 178.74
#SCROLL 1.04
400000000400000000400000000000000000000000000000,
#MEASURE 2/4
#BPMCHANGE 183.68
#SCROLL 1.01
300000000000000000000000,
#MEASURE 4/4
#BPMCHANGE 175.67
#SCROLL 1.05
100000100000100100100000100000100000100000100000,
#BPMCHANGE 179.88
#SCROLL 1.03
100000100000100100100000100000100000100000000000,
#BPMCHANGE 180.16
100000100000100100100000100000100000100000100000,
#BPMCHANGE 179.87
100000100000100100100000100000100000100000000000,
#BPMCHANGE 180.16
100000100000100100100000100000100000100000100000,
#BPMCHANGE 179.88
100000100000100100100000100000100000100000000000,
#BPMCHANGE 180.16
100000100000100100100000100000100000100100100000,
#BPMCHANGE 189.23
#SCROLL 0.98
300000000000300000000000
#BPMCHANGE 169.34
#SCROLL 1.09
300000000000400000400000,
#BPMCHANGE 181.32
#SCROLL 1.02
100000100000100100100000100000100000100000100000,
#BPMCHANGE 179.87
#SCROLL 1.03
100000100000100100100000100000100000100000000000,
#BPMCHANGE 180.16
100000100000100100100000100000100000100000100000,
#BPMCHANGE 181.63
#SCROLL 1.02
100000100000100100100000100000100000100000000000,
#BPMCHANGE 184.25
#SCROLL 1
400000000400000000400000
#BPMCHANGE 187.35
#SCROLL 0.99
000400000000000000000000,
#BPMCHANGE 163.93
#SCROLL 1.13
000000400000000400000000
#BPMCHANGE 186.1
#SCROLL 0.99
400000000000000000000000,
#BPMCHANGE 175.4
#SCROLL 1.05
100000100000100100100000100000100000100100100000,
#BPMCHANGE 184.56
#SCROLL 1
100100100000100100100000
#BPMCHANGE 187.69
#SCROLL 0.99
100100100100100000000000,
#BPMCHANGE 175.95
#SCROLL 1.05
100000100000200200200000100000100000200200200000,
#BPMCHANGE 168.06
#SCROLL 1.1
300000000300000000300000
#BPMCHANGE 179.88
#SCROLL 1.03
000000100100100000000000,
#END
COURSE:Normal
LEVEL:6
BALLOON:10,10,10,10,7
SCOREINIT:510
SCOREDIFF:130
#START
#GOGOSTART
#SCROLL 1.02
300000000000000000000000000000000000000000000000,
#BPMCHANGE 178.44
#SCROLL 1.04
300000000000000000300000000000000000300000000000,
#BPMCHANGE 182.79
#SCROLL 1.01
300000000000000000000000000000000000000000000000,
#BPMCHANGE 178.74
#SCROLL 1.04
300000000000000000300000000000000000300000000000,
#BPMCHANGE 175.13
#SCROLL 1.06
300000000000
#BPMCHANGE 174.04
100000000000
#BPMCHANGE 181.91
#SCROLL 1.02
100000000000
#BPMCHANGE 178.45
#SCROLL 1.04
100000000000,
#BPMCHANGE 187.97
#SCROLL 0.98
100000000000
#BPMCHANGE 180.74
#SCROLL 1.02
100000000000100000000000
#BPMCHANGE 189.23
#SCROLL 0.98
100000000000,
#GOGOEND
#BPMCHANGE 176.22
#SCROLL 1.05
300000000000000000000000000000000000000000000000,
#BPMCHANGE 177.89
#SCROLL 1.04
400000000400000000400000000000000000000000000000,
#BPMCHANGE 180.45
#SCROLL 1.03
100000100000100000000000100000100000100000000000,
#BPMCHANGE 179.59
100000000000100000000000100000100000100000000000,
#BPMCHANGE 179.87
100000100000100000000000100000100000100000000000,
#BPMCHANGE 180.16
100000000000100000000000100000100000100000000000,
#BPMCHANGE 180.45
100000100000100000000000100000100000100000000000,
#BPMCHANGE 179.3
100000000000100000000000100000100000100000000000,
#BPMCHANGE 183.09
#SCROLL 1.01
100000100000100000000000100000100000100000000000,
#BPMCHANGE 189.23
#SCROLL 0.98
600000000000000000000008
#BPMCHANGE 174.05
#SCROLL 1.06
000000000000400000000000,
#BPMCHANGE 175.95
#SCROLL 1.05
100000100000100000000000100000100000100000000000,
#BPMCHANGE 179.87
#SCROLL 1.03
100000100000100000000000100000000000100000000000,
#BPMCHANGE 180.16
100000100000100000000000100000100000100000000000,
100000100000100000000000100000000000100000000000,
#BPMCHANGE 180.31
100000100000100000000000100000100000100000000000,
#BPMCHANGE 179.59
100000100000100000000000100000000000100000000000,
#BPMCHANGE 180.02
100000100000100000000000100000100000100000000000,
#BPMCHANGE 185.19
#SCROLL 1
600000000000000000000000000000000008000000000000,
#BPMCHANGE 182.2
#SCROLL 1.02
300000000000000000000000000000000000000000000000,
#BPMCHANGE 174.05
#SCROLL 1.06
000000000000000000000000000000000000000000000000,
#BPMCHANGE 179.44
#SCROLL 1.03
100000000000100000000000100000100000100000100000,
100000000000100000000000100000000000000000000000,
#BPMCHANGE 185.63
#SCROLL 1
100000000000100000000000100000100000100000000000,
#BPMCHANGE 177.81
#SCROLL 1.04
500000000000000000000000000000000008000000000000,
#BPMCHANGE 180.09
#SCROLL 1.03
100000000000100000000000100000100000100000100000,
#BPMCHANGE 176.63
#SCROLL 1.05
100000000000100000000000100000000000000000000000,
#BPMCHANGE 184.44
#SCROLL 1
100000000000100000000000100000100000100000000000,
#BPMCHANGE 178.45
#SCROLL 1.04
500000000000000000000000000000000008000000000000,
#BPMCHANGE 177.19
100000000000000000000000200000000000200000000000,
#BPMCHANGE 183.06
#SCROLL 1.01
100000000000000000000000200000000000200000000000,
#BPMCHANGE 179.73
#SCROLL 1.03
700000000000000000000000000000000000000000000000,
#BPMCHANGE 179.88
000000000000000000000000000000000000800000000000,
#BPMCHANGE 177.26
#SCROLL 1.04
100000000000000000000000200000000000200000000000,
#BPMCHANGE 180.81
#SCROLL 1.02
100000000000000000000000200000000000200000000000,
#BPMCHANGE 179.59
#SCROLL 1.03
700000000000000000000000000000000000000000000000,
#BPMCHANGE 179.87
000000000000000000000000000000000000800000000000,
#BPMCHANGE 173.11
#SCROLL 1.07
300000000000
#BPMCHANGE 176.64
#SCROLL 1.05
000000000000
#BPMCHANGE 191.19
#SCROLL 0.97
000000000000
#BPMCHANGE 195.81
#SCROLL 0.94
000000000000,
#BPMCHANGE 177.03
#SCROLL 1.05
300000000000
#BPMCHANGE 181.91
#SCROLL 1.02
000000000000
#BPMCHANGE 161.12
#SCROLL 1.15
000000000000
#BPMCHANGE 214.84
#SCROLL 0.86
000000000000,
#BPMCHANGE 174.99
#SCROLL 1.06
100000000000100000000000100000100000100000100000,
#BPMCHANGE 179.58
#SCROLL 1.03
100000000000100000000000100000000000000000000000,
#BPMCHANGE 185.63
#SCROLL 1
100000000000100000000000100000100000100000000000,
#BPMCHANGE 180.45
#SCROLL 1.03
500000000000000000000000
#BPMCHANGE 169.85
#SCROLL 1.09
000000000008000000000000,
#BPMCHANGE 181.91
#SCROLL 1.02
100000000000100000000000100000100000100000100000,
#BPMCHANGE 178.03
#SCROLL 1.04
100000000000100000000000100000000000000000000000,
#BPMCHANGE 185.95
#SCROLL 0.99
100000000000100000000000100000100000100000000000,
#BPMCHANGE 177.89
#SCROLL 1.04
500000000000000000000000
#BPMCHANGE 174.04
#SCROLL 1.06
000000000008000000000000,
#BPMCHANGE 178.72
#SCROLL 1.04
100000000000000000000000200000000000200000000000,
#BPMCHANGE 181.05
#SCROLL 1.02
100000000000000000000000200000000000200000000000,
#BPMCHANGE 180.16
#SCROLL 1.03
700000000000000000000000000000000000000000000000,
#BPMCHANGE 181.03
#SCROLL 1.02
000000000000000000000000000000000000800000000000,
#BPMCHANGE 177.32
#SCROLL 1.04
100000000000000000000000200000000000200000000000,
#BPMCHANGE 180.16
#SCROLL 1.03
100000000000000000000000200000000000200000000000,
#BPMCHANGE 179.87
700000000000000000000000000000000000000000000000,
#BPMCHANGE 183.09
#SCROLL 1.01
000000000000000000000000000000000000800000000000,
#GOGOSTART
#BPMCHANGE 171.92
#SCROLL 1.08
300000000000
#BPMCHANGE 185.81
#SCROLL 1
000000000000
#BPMCHANGE 186.57
#SCROLL 0.99
000000000000000000000000,
#BPMCHANGE 180.16
#SCROLL 1.03
300000000000000000300000000000000000300000000000,
#BPMCHANGE 174.04
#SCROLL 1.06
300000000000
#BPMCHANGE 179.6
#SCROLL 1.03
000000000000
#BPMCHANGE 177.88
#SCROLL 1.04
000000000000
#BPMCHANGE 179.01
#SCROLL 1.03
000000000000,
#BPMCHANGE 179.56
300000000000000000300000000000000000
#BPMCHANGE 179.58
300000000000,
#BPMCHANGE 176.22
#SCROLL 1.05
300000000000
#BPMCHANGE 180.17
#SCROLL 1.03
100000000000100000000000
#BPMCHANGE 186.72
#SCROLL 0.99
100000000000,
#BPMCHANGE 177.33
#SCROLL 1.04
100000000000100000000000100000000000
#BPMCHANGE 191.78
#SCROLL 0.96
100000000000,
#BPMCHANGE 180.16
#SCROLL 1.03
300000000000000000300000000000000000300000000000,
#BPMCHANGE 179.31
400000000000000000400000000000000000400000000000,
#BPMCHANGE 176.4
#SCROLL 1.05
100000000000000000100000
#BPMCHANGE 190.14
#SCROLL 0.97
100000000000
#BPMCHANGE 180.69
#SCROLL 1.02
100000000000,
#BPMCHANGE 179.02
#SCROLL 1.03
100000000000000000100000100000000000100000000000,
#BPMCHANGE 177.32
#SCROLL 1.04
100000000000000000200000200000000000200000000000,
#BPMCHANGE 181.63
#SCROLL 1.02
100000000000000000200000200000000000200000000000,
#BPMCHANGE 177.89
#SCROLL 1.04
100000000000000000100000100000000000200000000000,
#BPMCHANGE 183.68
#SCROLL 1.01
300000000000300000000000300000000000000000000000,
#GOGOEND
#BPMCHANGE 185.5
#SCROLL 1
300000000000000000000000
#BPMCHANGE 170.88
#SCROLL 1.08
000000000000000000000000,
#BPMCHANGE 178.74
#SCROLL 1.04
400000000400000000400000000000000000000000000000,
#MEASURE 2/4
#BPMCHANGE 183.68
#SCROLL 1.01
300000000000000000000000,
#MEASURE 4/4
#BPMCHANGE 175.67
#SCROLL 1.05
100000100000100000000000100000100000100000000000,
#BPMCHANGE 179.88
#SCROLL 1.03
100000000000100000000000100000100000100000000000,
#BPMCHANGE 180.16
100000100000100000000000100000100000100000000000,
#BPMCHANGE 179.87
100000000000100000000000100000100000100000000000,
#BPMCHANGE 180.16
100000100000100000000000100000100000100000000000,
#BPMCHANGE 179.88
100000000000100000000000100000100000100000000000,
#BPMCHANGE 180.16
100000100000100000000000100000100000100000000000,
#BPMCHANGE 189.23
#SCROLL 0.98
600000000000000000000008
#BPMCHANGE 169.34
#SCROLL 1.09
000000000000400000000000,
#BPMCHANGE 181.32
#SCROLL 1.02
100000100000100000000000100000100000100000000000,
#BPMCHANGE 179.87
#SCROLL 1.03
100000100000100000000000100000000000100000000000,
#BPMCHANGE 180.16
100000100000100000000000100000100000100000000000,
#BPMCHANGE 181.63
#SCROLL 1.02
100000100000100000000000100000000000100000000000,
#BPMCHANGE 184.25
#SCROLL 1
500000000000000000000000
#BPMCHANGE 187.35
#SCROLL 0.99
000008000000000000000000,
#BPMCHANGE 163.93
#SCROLL 1.13
600000000000000000000000
#BPMCHANGE 186.1
#SCROLL 0.99
000000000000000008000000,
#BPMCHANGE 175.4
#SCROLL 1.05
100000100000100000000000100000100000100000000000,
#BPMCHANGE 184.56
#SCROLL 1
100000100000100000100000
#BPMCHANGE 187.69
#SCROLL 0.99
100000100000100000000000,
#BPMCHANGE 175.95
#SCROLL 1.05
700000000000000000000000000000000000800000000000,
#BPMCHANGE 168.06
#SCROLL 1.1
300000000300000000300000
#BPMCHANGE 179.88
#SCROLL 1.03
000000000000400000000000,
#END
COURSE:Easy
LEVEL:5
BALLOON:8,8,8,8,3
SCOREINIT:350
SCOREDIFF:80
#START
#GOGOSTART
#SCROLL 1.02
300000000000000000000000000000000000000000000000,
#BPMCHANGE 178.44
#SCROLL 1.04
300000000000000000000000300000000000000000000000,
#BPMCHANGE 182.79
#SCROLL 1.01
300000000000000000000000000000000000000000000000,
#BPMCHANGE 178.74
#SCROLL 1.04
300000000000000000000000300000000000000000000000,
#BPMCHANGE 175.13
#SCROLL 1.06
300000000000
#BPMCHANGE 174.04
100000000000
#BPMCHANGE 181.91
#SCROLL 1.02
100000000000
#BPMCHANGE 178.45
#SCROLL 1.04
100000000000,
#BPMCHANGE 187.97
#SCROLL 0.98
100000000000
#BPMCHANGE 180.74
#SCROLL 1.02
100000000000100000000000
#BPMCHANGE 189.23
#SCROLL 0.98
100000000000,
#GOGOEND
#BPMCHANGE 176.22
#SCROLL 1.05
300000000000000000000000000000000000000000000000,
#BPMCHANGE 177.89
#SCROLL 1.04
400000000400000000400000000000000000000000000000,
#BPMCHANGE 180.45
#SCROLL 1.03
100000000000100000000000100000100000100000000000,
#BPMCHANGE 179.59
100000000000100000000000100000000000100000000000,
#BPMCHANGE 179.87
100000000000100000000000100000100000100000000000,
#BPMCHANGE 180.16
100000000000100000000000100000000000100000000000,
#BPMCHANGE 180.45
100000000000100000000000100000100000100000000000,
#BPMCHANGE 179.3
100000000000100000000000100000000000100000000000,
#BPMCHANGE 183.09
#SCROLL 1.01
100000000000100000000000100000100000100000000000,
#BPMCHANGE 189.23
#SCROLL 0.98
600000000000000000000008
#BPMCHANGE 174.05
#SCROLL 1.06
000000000000400000000000,
#BPMCHANGE 175.95
#SCROLL 1.05
100000000000100000000000100000100000100000000000,
#BPMCHANGE 179.87
#SCROLL 1.03
100000000000100000000000100000000000100000000000,
#BPMCHANGE 180.16
100000000000100000000000100000100000100000000000,
100000000000100000000000100000000000100000000000,
#BPMCHANGE 180.31
100000000000100000000000100000100000100000000000,
#BPMCHANGE 179.59
100000000000100000000000100000000000100000000000,
#BPMCHANGE 180.02
100000000000100000000000100000100000100000000000,
#BPMCHANGE 185.19
#SCROLL 1
600000000000000000000000000000000008000000000000,
#BPMCHANGE 182.2
#SCROLL 1.02
300000000000000000000000000000000000000000000000,
#BPMCHANGE 174.05
#SCROLL 1.06
000000000000000000000000000000000000000000000000,
#BPMCHANGE 179.44
#SCROLL 1.03
100000000000100000000000100000000000100000000000,
100000100000100000000000100000000000000000000000,
#BPMCHANGE 185.63
#SCROLL 1
100000000000100000000000100000000000100000000000,
#BPMCHANGE 177.81
#SCROLL 1.04
500000000000000000000000000000000008000000000000,
#BPMCHANGE 180.09
#SCROLL 1.03
100000000000100000000000100000000000100000000000,
#BPMCHANGE 176.63
#SCROLL 1.05
100000100000100000000000100000000000000000000000,
#BPMCHANGE 184.44
#SCROLL 1
100000000000100000000000100000000000100000000000,
#BPMCHANGE 178.45
#SCROLL 1.04
500000000000000000000000000000000008000000000000,
#BPMCHANGE 177.19
100000000000000000000000200000000000200000000000,
#BPMCHANGE 183.06
#SCROLL 1.01
100000000000000000000000200000000000200000000000,
#BPMCHANGE 179.73
#SCROLL 1.03
700000000000000000000000000000000000000000000000,
#BPMCHANGE 179.88
000000000000000000000000800000000000000000000000,
#BPMCHANGE 177.26
#SCROLL 1.04
100000000000000000000000200000000000200000000000,
#BPMCHANGE 180.81
#SCROLL 1.02
100000000000000000000000200000000000200000000000,
#BPMCHANGE 179.59
#SCROLL 1.03
700000000000000000000000000000000000000000000000,
#BPMCHANGE 179.87
000000000000000000000000800000000000000000000000,
#BPMCHANGE 173.11
#SCROLL 1.07
300000000000
#BPMCHANGE 176.64
#SCROLL 1.05
000000000000
#BPMCHANGE 191.19
#SCROLL 0.97
000000000000
#BPMCHANGE 195.81
#SCROLL 0.94
000000000000,
#BPMCHANGE 177.03
#SCROLL 1.05
300000000000
#BPMCHANGE 181.91
#SCROLL 1.02
000000000000
#BPMCHANGE 161.12
#SCROLL 1.15
000000000000
#BPMCHANGE 214.84
#SCROLL 0.86
000000000000,
#BPMCHANGE 174.99
#SCROLL 1.06
100000000000100000000000100000000000100000000000,
#BPMCHANGE 179.58
#SCROLL 1.03
100000100000100000000000200000000000000000000000,
#BPMCHANGE 185.63
#SCROLL 1
100000000000100000000000100000000000100000000000,
#BPMCHANGE 180.45
#SCROLL 1.03
500000000000000000000000
#BPMCHANGE 169.85
#SCROLL 1.09
000000000008000000000000,
#BPMCHANGE 181.91
#SCROLL 1.02
100000000000100000000000100000000000100000000000,
#BPMCHANGE 178.03
#SCROLL 1.04
100000100000100000000000200000000000000000000000,
#BPMCHANGE 185.95
#SCROLL 0.99
100000000000100000000000100000000000100000000000,
#BPMCHANGE 177.89
#SCROLL 1.04
500000000000000000000000
#BPMCHANGE 174.04
#SCROLL 1.06
000000000008000000000000,
#BPMCHANGE 178.72
#SCROLL 1.04
100000000000000000000000200000000000200000000000,
#BPMCHANGE 181.05
#SCROLL 1.02
100000000000000000000000200000000000200000000000,
#BPMCHANGE 180.16
#SCROLL 1.03
700000000000000000000000000000000000000000000000,
#BPMCHANGE 181.03
#SCROLL 1.02
000000000000000000000000800000000000000000000000,
#BPMCHANGE 177.32
#SCROLL 1.04
100000000000000000000000200000000000200000000000,
#BPMCHANGE 180.16
#SCROLL 1.03
100000000000000000000000200000000000200000000000,
#BPMCHANGE 179.87
700000000000000000000000000000000000000000000000,
#BPMCHANGE 183.09
#SCROLL 1.01
000000000000000000000000800000000000000000000000,
#GOGOSTART
#BPMCHANGE 171.92
#SCROLL 1.08
300000000000
#BPMCHANGE 185.81
#SCROLL 1
000000000000
#BPMCHANGE 186.57
#SCROLL 0.99
000000000000000000000000,
#BPMCHANGE 180.16
#SCROLL 1.03
300000000000000000000000300000000000000000000000,
#BPMCHANGE 174.04
#SCROLL 1.06
300000000000
#BPMCHANGE 179.6
#SCROLL 1.03
000000000000
#BPMCHANGE 177.88
#SCROLL 1.04
000000000000
#BPMCHANGE 179.01
#SCROLL 1.03
000000000000,
#BPMCHANGE 179.56
300000000000000000000000300000000000
#BPMCHANGE 179.58
000000000000,
#BPMCHANGE 176.22
#SCROLL 1.05
300000000000
#BPMCHANGE 180.17
#SCROLL 1.03
100000000000100000000000
#BPMCHANGE 186.72
#SCROLL 0.99
100000000000,
#BPMCHANGE 177.33
#SCROLL 1.04
100000000000100000000000100000000000
#BPMCHANGE 191.78
#SCROLL 0.96
100000000000,
#BPMCHANGE 180.16
#SCROLL 1.03
300000000000000000000000300000000000300000000000,
#BPMCHANGE 179.31
400000000000000000000000400000000000400000000000,
#BPMCHANGE 176.4
#SCROLL 1.05
100000000000000000000000
#BPMCHANGE 190.14
#SCROLL 0.97
100000000000
#BPMCHANGE 180.69
#SCROLL 1.02
100000000000,
#BPMCHANGE 179.02
#SCROLL 1.03
100000000000000000000000100000000000100000000000,
#BPMCHANGE 177.32
#SCROLL 1.04
100000000000000000000000200000000000200000000000,
#BPMCHANGE 181.63
#SCROLL 1.02
100000000000000000000000200000000000200000000000,
#BPMCHANGE 177.89
#SCROLL 1.04
100000000000000000000000100000000000000000000000,
#BPMCHANGE 183.68
#SCROLL 1.01
300000000000300000000000300000000000000000000000,
#GOGOEND
#BPMCHANGE 185.5
#SCROLL 1
300000000000000000000000
#BPMCHANGE 170.88
#SCROLL 1.08
000000000000000000000000,
#BPMCHANGE 178.74
#SCROLL 1.04
400000000400000000400000000000000000000000000000,
#MEASURE 2/4
#BPMCHANGE 183.68
#SCROLL 1.01
300000000000000000000000,
#MEASURE 4/4
#BPMCHANGE 175.67
#SCROLL 1.05
100000000000100000000000100000100000100000000000,
#BPMCHANGE 179.88
#SCROLL 1.03
100000000000100000000000100000000000100000000000,
#BPMCHANGE 180.16
100000000000100000000000100000100000100000000000,
#BPMCHANGE 179.87
100000000000100000000000100000000000100000000000,
#BPMCHANGE 180.16
100000000000100000000000100000100000100000000000,
#BPMCHANGE 179.88
100000000000100000000000100000000000100000000000,
#BPMCHANGE 180.16
100000000000100000000000100000100000100000000000,
#BPMCHANGE 189.23
#SCROLL 0.98
600000000000000000000008
#BPMCHANGE 169.34
#SCROLL 1.09
000000000000400000000000,
#BPMCHANGE 181.32
#SCROLL 1.02
100000100000100000000000100000100000100000000000,
#BPMCHANGE 179.87
#SCROLL 1.03
100000000000100000000000100000000000100000000000,
#BPMCHANGE 180.16
100000100000100000000000100000100000100000000000,
#BPMCHANGE 181.63
#SCROLL 1.02
100000000000100000000000100000000000100000000000,
#BPMCHANGE 184.25
#SCROLL 1
500000000000000000000000
#BPMCHANGE 187.35
#SCROLL 0.99
000000008000000000000000,
#BPMCHANGE 163.93
#SCROLL 1.13
600000000000000000000000
#BPMCHANGE 186.1
#SCROLL 0.99
000000000000008000000000,
#BPMCHANGE 175.4
#SCROLL 1.05
100000000000100000000000100000100000100000000000,
#BPMCHANGE 184.56
#SCROLL 1
100000100000100000000000
#BPMCHANGE 187.69
#SCROLL 0.99
100000100000100000000000,
#BPMCHANGE 175.95
#SCROLL 1.05
700000000000000000000000800000000000000000000000,
#BPMCHANGE 168.06
#SCROLL 1.1
300000000300000000300000
#BPMCHANGE 179.88
#SCROLL 1.03
000000000000400000000000,
#END