Files
2023-06-15 19:15:39 -05:00

309 lines
12 KiB
Plaintext

//TJADB Project
TITLE:Boku no Kimochi
TITLEJA:僕のキモチ
SUBTITLE:--WaT
BPM:125
WAVE:Boku no Kimochi.ogg
OFFSET:-2.131
DEMOSTART:80.831
COURSE:Oni
LEVEL:7
SCOREINIT:800
SCOREDIFF:140
#START
100000000000000000000000100000000000000000000000,
100000000000000000000000200000000000000000000000,
500000000000000000000000000008000000000000000000,
100000000000000000100000100000100100100000100000,
100000000000000000200000200000200200200000200000,
200000000000000000100000100000100100100000100000,
300000300000000000300000000000300000300000000000,
000000000000100000000000100000000000100000100100,
100000100000200000100200100000100000200000000000,
100000100000200000200200000100100000200000200000,
100000100000200000200200000100100000200000200000,
100000100000200000200200100100200000100100200000,
100000100000200000100200100000100000200000000000,
100000100000200000200200100100200000100100200000,
300000000000300000300000000000300000300000000000,
000000100000100000100000100100100100200000000000,
100000000000200000100200100000100000200000100000,
000000100100200000000000000000100000200000200200,
100000000000200000100200100000100000200000100000,
000000100100200000000000000000100000200000200200,
100000000000200000100200100000100000200000100000,
000000100100200000000000000000100000200000200200,
100000000000200000100200100000100000200000200000,
000000200000200000000000100000200000100200100000,
100000000000200000100200100000100000200000100000,
000000100100200000000000100000100000200000200200,
100000000000200000100200100000100000200000100000,
000000100100200000000000100000100000200000200200,
100000000000200000100200100000100000200000100000,
000000100100200000000000100000100000200000200200,
100000000000200000100200100000100000200000200000,
000000200000200000200200200000200000100000000000,
300000000000000000000000000000000000000000000000,
100000200200100000200000100100100100200000000000,
300000000000000000000000000000000000000000000000,
200000100100200000100000100100100100200000000000,
100100100000200000200200100200100000200000200000,
100100100000200000200200100200100000200000000000,
100000100000200000100200100100100000200000200000,
100000100000100000100000100000100000100000100100,
100000000000200000000000200000100100200200100000,
#GOGOSTART
100000100000200000100200100100100000200000000000,
100000100000200000100200100100100000200000000000,
100000100000200000100200100100100000200000200000,
100000100000200000100000000000200200200000200200,
100000100000200000100000000000100100100000200200,
100000100000200000100000000000200200200000200200,
100000100000200000100000000000100000100000100100,
100000100000200000100100100000100100200200100000,
100000100000200000100200100100100000200000000000,
100000100000200000100200100100100000200000000000,
100000100000200000100200100100100000200000200000,
100000100000200000100000000000200200200000200200,
100000100000200000100000000000100100100000200200,
100000100000200000100000000000200200200000200000,
300000300000000000300000000000300000300000000000,
000000100000100000100000100200100100100000200000,
500000000000000000000000000000000000000000000008,
#GOGOEND
#END
COURSE:Hard
LEVEL:4
SCOREINIT:720
SCOREDIFF:160
#START
100000000000000000000000100000000000000000000000,
100000000000000000000000200000000000000000000000,
500000000000000000000000800000000000000000000000,
100000000000000000100000100000000000100000000000,
100000000000000000200000200000000000200000000000,
200000000000000000100000100000000000100000000000,
300000300000000000300000000000300000300000000000,
000000000000100000000000100000100000100100100000,
100000000000200000000000100000100000200000000000,
100000000000200000100000000000100000200000000000,
100000000000200000100000000000100000200000000000,
100000000000200000100000000000000000000000000000,
100000000000200000000000100000100000200000000000,
100000000000200000100000000000100000200000000000,
100000000000100000100000000000100000100000000000,
000000100000100000100000100000200200200000000000,
100000000000200000100000100000000000200000100000,
000000100000200000000000000000100000200000200000,
100000000000200000100000100000000000200000100000,
000000100000200000000000000000100000200000200000,
100000000000200000100000100000000000200000100000,
000000100000200000000000000000100000200000200000,
100000000000200000100000100000000000200000200000,
000000200000200000000000000000000000000000000000,
100000000000200000100000100000000000200000100000,
000000100000200000000000100000100000200000000000,
100000000000200000100000100000000000200000100000,
000000100000200000000000100000100000200000000000,
100000000000200000100000100000000000200000100000,
000000100000200000000000100000100000200000000000,
100000000000200000100000100000000000200000500000,
000000000000000000000000800000000000000000000000,
300000000000000000000000000000000000000000000000,
100000000000100000000000200000000000200000000000,
300000000000000000000000000000000000000000000000,
200000000000200000000000100000000000100000100100,
100000000000200000000000000000000000200000100100,
100000000000200000000000000000000000200000100100,
100000100000200000000000100100100000200000000000,
100000100000100000100000100000100000100000100100,
100000000000200000000000200000200000200200200000,
#GOGOSTART
100000100000200000000000100100100000200000000000,
100000100000200000000000100100100000200000000000,
100000100000200000100000100100100000200000000000,
100000100000200000100000000000100000200200200000,
100000100000200000100000000000100000200200200000,
100000100000200000100000000000200000200000000000,
100000100000200000100000000000100000100000500000,
000000000000000000000000000800000000000000000000,
100000100000200000000000100100100000200000000000,
100000100000200000000000100100100000200000000000,
100000100000200000100000100100100000200000000000,
100000100000200000100000000000200000200200200000,
100000100000200000100000000000200000200200200000,
100000100000200000100000000000200000200000000000,
300000300000000000300000000000300000300000000000,
000000000000100000000000100000100000100100100000,
500000000000000000000000000000000000000000000800,
#GOGOEND
#END
COURSE:Normal
LEVEL:3
BALLOON:21
SCOREINIT:760
SCOREDIFF:280
#START
100000000000000000000000100000000000000000000000,
100000000000000000000000200000000000000000000000,
500000000000000000000000800000000000000000000000,
100000000000000000000000100000000000100000000000,
100000000000000000000000100000000000100000000000,
100000000000000000000000100000000000000000000000,
300000000000000000300000000000000000500000000000,
000000000000000000000000800000000000000000000000,
100000000000200000000000000000000000200000000000,
100000000000200000000000000000000000200000000000,
100000000000100000100000000000000000200000000000,
100000000000000000000000000000000000000000000000,
100000000000200000000000000000000000200000000000,
100000000000200000000000000000000000200000000000,
300000000000000000300000000000000000500000000000,
000000000000000000000000800000000000000000000000,
100000000000000000100000100000000000200000000000,
100000000000000000100000100000000000000000000000,
100000000000000000100000100000000000200000000000,
100000000000100000000000000000000000000000000000,
100000000000000000100000100000000000200000000000,
100000000000000000100000100000000000000000000000,
100000000000000000100000100000000000200000000000,
100000000000100000000000000000000000000000000000,
100000000000000000100000100000000000200000000000,
100000000000000000100000100000000000000000000000,
100000000000000000200000200000000000200000000000,
100000000000100000000000000000000000000000000000,
100000000000000000100000100000000000200000000000,
100000000000000000100000100000000000000000000000,
100000000000000000200000200000000000000000000000,
500000000000000000000000800000000000000000000000,
300000000000000000000000000000000000000000000000,
400000000000000000000000000000000000000000000000,
300000000000000000000000000000000000000000000000,
200000000000200000000000200000000000200000000000,
100000000000000000000000200000000000000000000000,
100000000000000000000000200000000000000000000000,
300000000000300000000000300000000000300000000000,
600000000000000000000000800000000000000000000000,
400000000000000000000000000000000000000000000000,
#GOGOSTART
100000000000100000000000100000000000000000000000,
200000000000200000000000200000000000000000000000,
500000000000000000000000800000000000000000000000,
100000000000000000100000100000000000100000000000,
100000000000000000100000100000000000100000000000,
100000000000200000000000000000000000200000000000,
100000000000100000000000200000000000200000000000,
500000000000000000000000800000000000000000000000,
300000000000300000000000300000000000000000000000,
400000000000400000000000400000000000000000000000,
600000000000000000000000800000000000000000000000,
100000000000000000100000100000000000100000000000,
100000000000000000200000200000000000200000000000,
200000000000000000100000100000000000100000000000,
300000000000000000300000000000000000900000000000,
000000000000000000000000000000000000000000000000,
000000000000000000000000000000000000000000000008,
#GOGOEND
#END
COURSE:Easy
LEVEL:3
BALLOON:4,4,13
SCOREINIT:840
SCOREDIFF:240
#START
100000000000000000000000100000000000000000000000,
100000000000000000000000100000000000000000000000,
500000000000000000000000800000000000000000000000,
100000000000000000000000000000000000000000000000,
100000000000000000000000000000000000000000000000,
100000000000000000000000000000000000000000000000,
100000000000000000100000000000000000500000000000,
000000000000000000000000800000000000000000000000,
100000000000000000000000100000000000000000000000,
200000000000000000000000200000000000000000000000,
100000000000100000000000000000000000000000000000,
100000000000000000000000000000000000000000000000,
100000000000000000000000100000000000000000000000,
200000000000000000000000200000000000000000000000,
300000000000000000300000000000000000300000000000,
000000000000000000000000000000000000000000000000,
100000000000000000100000100000000000000000000000,
100000000000100000000000000000000000000000000000,
100000000000000000100000100000000000000000000000,
700000000000000000000000800000000000000000000000,
100000000000000000100000100000000000000000000000,
100000000000100000000000000000000000000000000000,
100000000000000000100000100000000000000000000000,
700000000000000000000000800000000000000000000000,
100000000000000000100000100000000000000000000000,
100000000000100000000000000000000000000000000000,
100000000000000000100000100000000000000000000000,
200000000000200000000000000000000000000000000000,
100000000000000000100000100000000000000000000000,
100000000000100000000000100000000000000000000000,
100000000000000000100000100000000000000000000000,
500000000000000000000000800000000000000000000000,
300000000000000000000000000000000000000000000000,
400000000000000000000000000000000000000000000000,
300000000000000000000000000000000000000000000000,
400000000000000000000000000000000000000000000000,
100000000000000000000000200000000000000000000000,
100000000000000000000000200000000000000000000000,
300000000000300000000000300000000000300000000000,
600000000000000000000000800000000000000000000000,
400000000000000000000000000000000000000000000000,
#GOGOSTART
100000000000100000000000100000000000000000000000,
100000000000100000000000100000000000000000000000,
500000000000000000000000800000000000000000000000,
100000000000000000000000100000000000100000000000,
100000000000000000000000100000000000100000000000,
100000000000000000000000200000000000000000000000,
100000000000000000000000100000000000100000000000,
500000000000000000000000800000000000000000000000,
300000000000300000000000300000000000000000000000,
300000000000300000000000300000000000000000000000,
600000000000000000000000800000000000000000000000,
100000000000000000000000100000000000100000000000,
100000000000000000000000200000000000200000000000,
200000000000000000000000100000000000100000000000,
100000000000000000100000000000000000900000000000,
000000000000000000000000000000000000000000000000,
000000000000000000000000000000000000000000000008,
#GOGOEND
#END