forked from ESE/ESE
577 lines
10 KiB
Plaintext
577 lines
10 KiB
Plaintext
//TJADB Project
|
|
TITLE:Boogie Boogie Funassyi♪
|
|
TITLEJA:ぶぎ ぶぎ ふなっしー♪
|
|
SUBTITLE:--Funassyi
|
|
SUBTITLEJA:〜ふなっしー公式テーマソング第二弾〜
|
|
BPM:170.67
|
|
WAVE:Boogie Boogie Funassyi♪.ogg
|
|
OFFSET:-1.640
|
|
DEMOSTART:66.588
|
|
|
|
COURSE:Oni
|
|
LEVEL:8
|
|
BALLOON:8,5
|
|
SCOREINIT:470
|
|
SCOREDIFF:115
|
|
|
|
#START
|
|
100000000000000000000000100000000000000000000000,
|
|
#BPMCHANGE 168.81
|
|
#SCROLL 1.01
|
|
100000000000000000000000100000000000000000000000,
|
|
#BPMCHANGE 169.12
|
|
#SCROLL 1
|
|
100000000000100000000000100000000000100000101010,
|
|
#BPMCHANGE 172.27
|
|
#SCROLL 0.99
|
|
100100100100100100100100100100100100101010101010,
|
|
#BPMCHANGE 174.63
|
|
#SCROLL 0.97
|
|
100000000000000000000000000000000000000000000000,
|
|
#BPMCHANGE 168.66
|
|
#SCROLL 1.01
|
|
000000000000000000000000000000000000000000000000,
|
|
#BPMCHANGE 166.29
|
|
#SCROLL 1.02
|
|
300000000000000000000000000000000000000000000000,
|
|
#BPMCHANGE 169.35
|
|
#SCROLL 1
|
|
000000000000000000000000000000000000000000000000,
|
|
#BPMCHANGE 169.32
|
|
300000000000000000000000000000000000000000000000,
|
|
#BPMCHANGE 169.96
|
|
300000000000000000000000000000100000200000000000,
|
|
#BPMCHANGE 169.57
|
|
100000000000200000100000100000000000200000100000,
|
|
#BPMCHANGE 169.96
|
|
200000100000000000100000000000100100200000000000,
|
|
#BPMCHANGE 170.31
|
|
100000000000200000100000100000000000200000100000,
|
|
#BPMCHANGE 169.27
|
|
200000100000000000100000400000000000400000000000,
|
|
#BPMCHANGE 169.44
|
|
100000000000200000100000100000000000200000100000,
|
|
#BPMCHANGE 171.51
|
|
#SCROLL 0.99
|
|
200000100000000000100000000000100100200000000000,
|
|
#BPMCHANGE 170.97
|
|
100000000000200000100000100000000000200000100000,
|
|
#BPMCHANGE 168.41
|
|
#SCROLL 1.01
|
|
200000100000000000100000400000000000400000000000,
|
|
#BPMCHANGE 171.11
|
|
#SCROLL 0.99
|
|
100000000000200000100000100000000000200000100000,
|
|
#BPMCHANGE 169.54
|
|
#SCROLL 1
|
|
200000100000000000100000000000100000200000100000,
|
|
#BPMCHANGE 170
|
|
000000100000200000100000100000100000200000100000,
|
|
#BPMCHANGE 169.39
|
|
000000100000200000100000100000200000200000000000,
|
|
#BPMCHANGE 169.88
|
|
100000000000200000100000100000000000200000100000,
|
|
#BPMCHANGE 168.41
|
|
#SCROLL 1.01
|
|
200000100000000000100000000000100000200000100000,
|
|
#BPMCHANGE 171.02
|
|
#SCROLL 0.99
|
|
000000100000200000100000300000000000300000300000,
|
|
000000300000200000100000200000100100200000000000,
|
|
#BPMCHANGE 168.58
|
|
#SCROLL 1.01
|
|
100000000000200000100000100000000000200000100000,
|
|
#BPMCHANGE 170.84
|
|
#SCROLL 0.99
|
|
200000100000000000100000000000100000200000100000,
|
|
#BPMCHANGE 170.92
|
|
000000100000200000100000100000200000200000100000,
|
|
#BPMCHANGE 170.68
|
|
000000100000200200100000200200100000200200100000,
|
|
#BPMCHANGE 166.54
|
|
#SCROLL 1.02
|
|
200000000000200000100000100000000000200000000000,
|
|
#BPMCHANGE 171.64
|
|
#SCROLL 0.99
|
|
100000200000000000100000000000100000200000000000,
|
|
#BPMCHANGE 171.24
|
|
100000000000200000100000100000200000100000200000,
|
|
#BPMCHANGE 169.31
|
|
#SCROLL 1
|
|
300000000000300000000000100000200000200200200200,
|
|
#BPMCHANGE 172.27
|
|
#SCROLL 0.99
|
|
100000100000100000300000000000200200100100100100,
|
|
#BPMCHANGE 168.06
|
|
#SCROLL 1.01
|
|
200000200000200000400000000000200200100100100100,
|
|
#BPMCHANGE 170.75
|
|
#SCROLL 0.99
|
|
200000000000200000100000200000000000200000000000,
|
|
#BPMCHANGE 169.66
|
|
#SCROLL 1
|
|
700000000000000000000000000000800000000000000000,
|
|
#BPMCHANGE 172.48
|
|
#SCROLL 0.98
|
|
100000100000100000300000000000200200100100100100,
|
|
#BPMCHANGE 162.05
|
|
#SCROLL 1.05
|
|
200000200000200000400000000000100000200200100000,
|
|
#BPMCHANGE 175.37
|
|
#SCROLL 0.97
|
|
000000100000200200100000000000100000200200100000,
|
|
#BPMCHANGE 169.27
|
|
#SCROLL 1
|
|
000000100000200200100000200000000000200000000000,
|
|
#BPMCHANGE 170.4
|
|
500000000000000000000000000000000000000080000000,
|
|
#BPMCHANGE 170.23
|
|
600000000000000000000000000000000000000080000000,
|
|
#BPMCHANGE 171.2
|
|
#SCROLL 0.99
|
|
100100100100100100100100100100100100100100100100,
|
|
#BPMCHANGE 169.88
|
|
#SCROLL 1
|
|
101010101010101010100000300000000000000000000000,
|
|
#BPMCHANGE 169
|
|
100100100000200200200000100100100000200200200000,
|
|
#BPMCHANGE 169.53
|
|
300000300000000000300000000000100000200000000000,
|
|
#BPMCHANGE 170.58
|
|
100100100000200200200000100100100000200200200000,
|
|
#BPMCHANGE 168.66
|
|
#SCROLL 1.01
|
|
300000300000000000300000000000200000100000000000,
|
|
#BPMCHANGE 171.99
|
|
#SCROLL 0.99
|
|
100000000000200000200000100000100000200000100100,
|
|
#BPMCHANGE 167.05
|
|
#SCROLL 1.02
|
|
200000100100200000100100200000100100200000100100,
|
|
#BPMCHANGE 171.02
|
|
#SCROLL 0.99
|
|
200000000000200200200000300000000000200200200000,
|
|
#BPMCHANGE 172.45
|
|
#SCROLL 0.98
|
|
300000000000200200200000300000200200200200200200,
|
|
#BPMCHANGE 169.58
|
|
#SCROLL 1
|
|
100100100000200200200000100100100000200200200000,
|
|
#BPMCHANGE 170
|
|
300000300000300000300000000000400000400000000000,
|
|
#BPMCHANGE 170.67
|
|
#SCROLL 0.99
|
|
100100100000200200200000100100100000200200200000,
|
|
#BPMCHANGE 173.35
|
|
#SCROLL 0.98
|
|
300000300000000000300000000000400000400000000000,
|
|
#BPMCHANGE 166.14
|
|
#SCROLL 1.02
|
|
100000000000200000200000100000100000200000100000,
|
|
#BPMCHANGE 168.22
|
|
#SCROLL 1.01
|
|
000000100100200000100100200000100100200000100100,
|
|
#BPMCHANGE 171.82
|
|
#SCROLL 0.99
|
|
200000000000200000100000500000000000000000000000,
|
|
#BPMCHANGE 169.7
|
|
#SCROLL 1
|
|
000000000000000800000000000000000000000000000000,
|
|
#BPMCHANGE 166.88
|
|
#SCROLL 1.02
|
|
300000000000000000000000000000000000000000000000,
|
|
#BPMCHANGE 170.67
|
|
#SCROLL 1
|
|
300000000000300000000000300000000000300000000000,
|
|
|
|
#GOGOSTART
|
|
#BPMCHANGE 172.86
|
|
#SCROLL 0.98
|
|
600000000000000000000000000000000000000000000080,
|
|
#BPMCHANGE 173.56
|
|
000000000000000000000000000000000000000000000000,
|
|
#BPMCHANGE 167.89
|
|
#SCROLL 1.01
|
|
000000000000000000000000000000000000000000000000,
|
|
#BPMCHANGE 167.05
|
|
#SCROLL 1.02
|
|
000000000000000000000000000000000000000000000000,
|
|
#BPMCHANGE 171.67
|
|
#SCROLL 0.99
|
|
101010100000200200200000200200200000101010100000,
|
|
#BPMCHANGE 170.73
|
|
200200200000200200200000101010100000200000000000,
|
|
#BPMCHANGE 168.15
|
|
#SCROLL 1.01
|
|
101010100000200200200000200200200000101010100000,
|
|
#BPMCHANGE 171.16
|
|
#SCROLL 0.99
|
|
200200200000200200200000700000000000000080000000,
|
|
#BPMCHANGE 169.48
|
|
#SCROLL 1
|
|
100000200000100100200000100000200000100100200000,
|
|
#BPMCHANGE 170.14
|
|
100000200000100100200000100000200100000100200000,
|
|
#BPMCHANGE 169.88
|
|
100000200200100000200000100000200200100000200000,
|
|
#BPMCHANGE 170.51
|
|
100000200200100000200000100200200100200200100000,
|
|
#BPMCHANGE 170
|
|
100000200000100100200000100000200000100100200000,
|
|
#BPMCHANGE 170.79
|
|
#SCROLL 0.99
|
|
100000200000100100200000100100200100100200100100,
|
|
#BPMCHANGE 170.84
|
|
100000200200100000200000100000200200100000200000,
|
|
#BPMCHANGE 172.99
|
|
#SCROLL 0.98
|
|
100200200100200200100200200100200200100200100200,
|
|
#BPMCHANGE 166.96
|
|
#SCROLL 1.02
|
|
100000200200100100200000100000200200100100200000,
|
|
#BPMCHANGE 169.88
|
|
#SCROLL 1
|
|
100000200200100100200200100000200100000100200000,
|
|
#BPMCHANGE 169.44
|
|
100100200200100100200000100100200200100100200000,
|
|
#BPMCHANGE 169.22
|
|
100100200200100100200200100200200100200200100000,
|
|
100100200200100100200200100100200200100100100100,
|
|
#BPMCHANGE 169.62
|
|
100100200200100100200200100100200100100200100100,
|
|
#BPMCHANGE 167.7
|
|
#SCROLL 1.01
|
|
100100200100100100200100100100200100100100200100,
|
|
#BPMCHANGE 170.78
|
|
#SCROLL 0.99
|
|
200000300000000300000000300000000000400000000000,
|
|
|
|
#GOGOEND
|
|
|
|
|
|
#END
|
|
|
|
COURSE:Hard
|
|
LEVEL:6
|
|
BALLOON:7,12,3
|
|
SCOREINIT:630
|
|
SCOREDIFF:168
|
|
|
|
|
|
#START
|
|
|
|
|
|
#BPMCHANGE 170
|
|
11,
|
|
11,
|
|
1111,
|
|
500000000000000000000000000000000008000000000000,
|
|
3,
|
|
,
|
|
3,
|
|
,
|
|
3,
|
|
3,
|
|
1212,
|
|
12010220,
|
|
1212,
|
|
11014040,
|
|
1212,
|
|
12010220,
|
|
1212,
|
|
11014040,
|
|
10211021,
|
|
21010121,
|
|
01211201,
|
|
01211000,
|
|
10211021,
|
|
21010121,
|
|
01203033,
|
|
03000000,
|
|
10211021,
|
|
21010121,
|
|
01211201,
|
|
01212120,
|
|
1212,
|
|
12010000,
|
|
10201212,
|
|
3300,
|
|
11130000,
|
|
22240000,
|
|
1212,
|
|
70000800,
|
|
11130000,
|
|
22240121,
|
|
01210121,
|
|
0111,
|
|
500000000000000000000000000000000000000008000000,
|
|
600000000000000000000000000000000000000008000000,
|
|
9,
|
|
8,
|
|
10221120,
|
|
33030000,
|
|
10221022,
|
|
33030000,
|
|
10221021,
|
|
01010104,
|
|
00223022,
|
|
30223022,
|
|
10221120,
|
|
33330440,
|
|
10221120,
|
|
33030440,
|
|
10221022,
|
|
01010103,
|
|
00050000,
|
|
000000000000000008000000000000000000000000000000,
|
|
3,
|
|
3333,
|
|
|
|
#GOGOSTART
|
|
600000000000000000000000000000000000000000000008,
|
|
,
|
|
,
|
|
,
|
|
5,
|
|
,
|
|
,
|
|
000000000000000008000000700000000000000000800000,
|
|
12121212,
|
|
1020002010111000,
|
|
12121212,
|
|
1020002010222000,
|
|
12121212,
|
|
1020002010111000,
|
|
12121212,
|
|
500000000000000000000000000000000008000000000000,
|
|
12121212,
|
|
1020002010111000,
|
|
12121212,
|
|
1020002010222000,
|
|
12121212,
|
|
1020002010111000,
|
|
12121212,
|
|
2030030030004000,
|
|
|
|
#GOGOEND
|
|
|
|
|
|
#END
|
|
|
|
|
|
COURSE:Normal
|
|
LEVEL:5
|
|
BALLOON:5,8,2
|
|
SCOREINIT:780
|
|
SCOREDIFF:235
|
|
|
|
|
|
#START
|
|
|
|
|
|
#BPMCHANGE 170
|
|
11,
|
|
11,
|
|
1111,
|
|
500000000000000000000000000000000008000000000000,
|
|
3,
|
|
,
|
|
3,
|
|
,
|
|
3,
|
|
3,
|
|
1110,
|
|
10010000,
|
|
1110,
|
|
20020000,
|
|
1110,
|
|
10010000,
|
|
1110,
|
|
20020000,
|
|
11,
|
|
1,
|
|
10101003,
|
|
,
|
|
11,
|
|
1,
|
|
10101003,
|
|
,
|
|
1110,
|
|
1,
|
|
10101004,
|
|
,
|
|
1110,
|
|
10010000,
|
|
1110,
|
|
3300,
|
|
10030000,
|
|
10030000,
|
|
1122,
|
|
70000800,
|
|
10030000,
|
|
10030000,
|
|
1111,
|
|
0111,
|
|
500000000000000000000000000000000000000008000000,
|
|
600000000000000000000000000000000000000008000000,
|
|
9,
|
|
8,
|
|
1110,
|
|
33030000,
|
|
1110,
|
|
33030000,
|
|
1122,
|
|
10101001,
|
|
03,
|
|
33,
|
|
1110,
|
|
30330440,
|
|
1110,
|
|
33030440,
|
|
1212,
|
|
1122,
|
|
10050000,
|
|
000000000000000008000000000000000000000000000000,
|
|
3,
|
|
3333,
|
|
|
|
#GOGOSTART
|
|
600000000000000000000000000000000000000000000008,
|
|
,
|
|
,
|
|
,
|
|
5,
|
|
,
|
|
,
|
|
000000000000000008000000700000000000000000800000,
|
|
11001100,
|
|
11001110,
|
|
11001100,
|
|
11002220,
|
|
11001100,
|
|
11001110,
|
|
11001100,
|
|
500000000000000000000000000000000008000000000000,
|
|
1111,
|
|
10101110,
|
|
1111,
|
|
10102220,
|
|
1111,
|
|
10101110,
|
|
1111,
|
|
0030030030004000,
|
|
|
|
#GOGOEND
|
|
|
|
|
|
#END
|
|
|
|
|
|
COURSE:Easy
|
|
LEVEL:3
|
|
BALLOON:3,5,2
|
|
SCOREINIT:680
|
|
SCOREDIFF:255
|
|
|
|
|
|
#START
|
|
|
|
|
|
#BPMCHANGE 170
|
|
1,
|
|
1,
|
|
11,
|
|
500000000000000000000000000008000000000000000000,
|
|
3,
|
|
,
|
|
3,
|
|
,
|
|
3,
|
|
3,
|
|
11,
|
|
1,
|
|
11,
|
|
2,
|
|
11,
|
|
1,
|
|
11,
|
|
2,
|
|
1,
|
|
1,
|
|
11,
|
|
1,
|
|
1,
|
|
1,
|
|
11,
|
|
1,
|
|
11,
|
|
1,
|
|
22,
|
|
2,
|
|
11,
|
|
1,
|
|
11,
|
|
3300,
|
|
10030000,
|
|
10030000,
|
|
11,
|
|
70000800,
|
|
10030000,
|
|
10030000,
|
|
11,
|
|
0111,
|
|
500000000000000000000000000000000000000008000000,
|
|
600000000000000000000000000000000000000008000000,
|
|
9,
|
|
8,
|
|
1110,
|
|
30030000,
|
|
1110,
|
|
30030000,
|
|
11,
|
|
1111,
|
|
13,
|
|
33,
|
|
1110,
|
|
30030000,
|
|
1110,
|
|
30030000,
|
|
11,
|
|
1111,
|
|
10050000,
|
|
000000000000000008000000000000000000000000000000,
|
|
3,
|
|
3333,
|
|
|
|
#GOGOSTART
|
|
600000000000000000000000000000000000000000000008,
|
|
,
|
|
,
|
|
,
|
|
5,
|
|
,
|
|
,
|
|
000000000000000008000000700000000000000000800000,
|
|
11,
|
|
1011,
|
|
11,
|
|
12,
|
|
11,
|
|
1011,
|
|
11,
|
|
500000000000000000000000000008000000000000000000,
|
|
11,
|
|
1011,
|
|
11,
|
|
12,
|
|
11,
|
|
1011,
|
|
11,
|
|
600000000000000008000000000000000000300000000000,
|
|
|
|
#GOGOEND
|
|
|
|
|
|
#END
|
|
|