Files
2023-06-15 19:15:39 -05:00

273 lines
2.4 KiB
Plaintext

//TJADB Project
TITLE:Candy Pop
TITLEJA:Candy Pop
SUBTITLE:--TWICE
BPM:174
WAVE:Candy Pop.ogg
OFFSET:-1.458
DEMOSTART:45.596
COURSE:Oni
LEVEL:6
SCOREINIT:980
SCOREDIFF:303
#START
00222020,
2222,
00222020,
20202222,
00222020,
2222,
00222020,
2022202020201010,
1000002220102010,
1010202020111020,
1000002220102010,
1010202020111020,
1000102220001020,
1022200010222020,
10210250,
000000000008000000000000200000000000100000100000,
1000002220102010,
1010202020111020,
1000002220102010,
1010202020111020,
1000102220001020,
1022200010222020,
12021012,
0020102010221020,
10021020,
1020100020001022,
10021012,
1000102010001022,
10021012,
1000102010001022,
1,
1022202020202020,//32
#GOGOSTART
1110111020002000,
500000000008000000400000000000000000200000000000,
1110111020002000,
500000000008000000400000000000000000200000000000,
1110222010002000,
1110222010002000,
3232,
3232,
1110111020002000,
500000000008000000400000000000000000200000000000,
1110111020002000,
10102022,
1000201000112000,
1000201000112000,
500000000000000000000008000000000000200000100000,
0444,//48
#GOGOEND
3,
33,
#END
COURSE:Hard
LEVEL:3
BALLOON:15,15,5,5,5,5
SCOREINIT:1490
SCOREDIFF:440
#START
,
,
,
,
0200,
,
0200,
00000011,
12,
10112011,
12,
10112000,
1120,
1120,
7,
00008011,
12,
10112011,
12,
10112000,
1120,
1120,
7,
08,
1,
2,
10021002,
10021000,
10021002,
12,
1,
,//32
#GOGOSTART
11111020,
70080000,
11111020,
70080000,
11221020,
11221020,
33,
33,
11111020,
70080000,
11111020,
1122,
10210020,
10210020,
70080021,
0444,//48
#GOGOEND
3,
33,
,
,
,
,
#END
COURSE:Normal
LEVEL:2
BALLOON:10,10,3,3,3,3,3
#START
,
,
,
,
0200,
,
0200,
,
1,
02,
1,
02,
1,
02,
7,
08,
12,
02,
12,
02,
12,
02,
7,
08,
1,
2,
11,
1,
11,
1,
1,
,//32
#GOGOSTART
1111,
70080000,
1111,
70080000,
1202,
1202,
33,
33,
1111,
70080000,
1111,
70080000,
1202,
1202,
70080011,
0333,//48
#GOGOEND
3,
33,
,
,
,
,
#END
COURSE:Easy
LEVEL:1
BALLOON:8,8,2,2,2,2,2
#START
,
,
,
,
0200,
,
0200,
,
1,
,
1,
,
1,
,
7,
08,
1,
,
1,
,
1,
,
7,
08,
1,
1,
1,
,
1,
1,
1,
,//32
#GOGOSTART
11,
70080000,
11,
70080000,
1,
1,
33,
33,
11,
70080000,
11,
70080000,
1,
1,
70080000,
0033,//48
#GOGOEND
3,
33,
,
,
,
,
#END