forked from ESE/ESE
463 lines
5.4 KiB
Plaintext
463 lines
5.4 KiB
Plaintext
//TJADB Project
|
|
TITLE:Caramelldansen (°∀°)
|
|
TITLEJA:ウッーウッーウマウマ (°∀°)
|
|
SUBTITLE:--Caramell
|
|
SUBTITLEJA:caramelldansen
|
|
BPM:164.74
|
|
WAVE:Caramelldansen (°∀°).ogg
|
|
OFFSET:-1.657
|
|
DEMOSTART:51.187
|
|
BGMOVIE:Caramelldansen (°∀°).mp4
|
|
|
|
COURSE:Oni
|
|
LEVEL:7
|
|
BALLOON:24
|
|
SCOREINIT:570
|
|
SCOREDIFF:145
|
|
|
|
|
|
#START
|
|
|
|
|
|
1202,
|
|
0202,
|
|
0202,
|
|
500000000000000000000008000000000000200000100000,
|
|
10200
|
|
#LYRIC Du-du-du
|
|
020,
|
|
0020002
|
|
#LYRIC Hey-yeah-yeah-i-yeah
|
|
0,
|
|
10200021,
|
|
,
|
|
#LYRIC
|
|
7,
|
|
0008,
|
|
1020102012021020,
|
|
1020102012021000,
|
|
1020102012021020,
|
|
1020102012021000,
|
|
1020102012021020,
|
|
1020102012021000,
|
|
1020102012021020,
|
|
3000000
|
|
#LYRIC Vi undrar, är ni redo att vara med?
|
|
0,
|
|
1000202011201020,
|
|
1020102210201020,
|
|
#LYRIC Armarna upp, nu ska ni få se
|
|
1000201011201020,
|
|
1020102210201020,
|
|
#LYRIC Kom igen
|
|
1000201022202020,
|
|
100020
|
|
#LYRIC Vem som helst kan vara med
|
|
1022202020,
|
|
1000201022102010,
|
|
#LYRIC Vem som helst kan vara med vara med
|
|
00102010221020
|
|
#LYRIC Så rör på era fötter, o-a-a-a
|
|
10,
|
|
1020102011201020,
|
|
10201022102020
|
|
#LYRIC Och vicka era höfter, o-la-la-la
|
|
00,
|
|
1020102011201020,
|
|
1020102210202000,
|
|
#LYRIC Gör som vi
|
|
1020102010221020,
|
|
1020
|
|
#LYRIC Till denna melody
|
|
102010221020,
|
|
1022102010221020,
|
|
3
|
|
#LYRIC O-a, o-a-a
|
|
0000000,
|
|
|
|
#GOGOSTART
|
|
#LYRIC Dansa med oss, klappa era händer
|
|
1000201022102010,
|
|
0010201120102000,
|
|
#LYRIC Gör som vi gör, ta några steg åt vänster
|
|
1000201022102010,
|
|
0010221022112010,
|
|
#LYRIC Lyssna och lär, missa inte chansen
|
|
1000201022102010,
|
|
0010201120102000,
|
|
#LYRIC Nu är vi här med caramelldansen
|
|
1000221022102030,
|
|
03303030,
|
|
#LYRIC O-o, o-a, o-a
|
|
30303434,
|
|
0020102011212000,
|
|
#LYRIC O-o, o-a, o-a-a-a
|
|
30303434,
|
|
0020102012021020,
|
|
#LYRIC O-o, o-a, o-a
|
|
30303434,
|
|
0020102011212000,
|
|
#LYRIC O-o, o-a, o-a-a-a
|
|
30303434,
|
|
0330000
|
|
#LYRIC Det blir en sensation överallt förstås
|
|
0,
|
|
|
|
#GOGOEND
|
|
1000201011201020,
|
|
10201022102010
|
|
#LYRIC På fester kommer alla att släppa loss
|
|
20,
|
|
1000201011201020,
|
|
1020102210201020,
|
|
#LYRIC Kom igen
|
|
1000201022202020,
|
|
10
|
|
#LYRIC Nu tar vi stegen om igen
|
|
00201022202020,
|
|
1000201022102010,
|
|
00
|
|
#LYRIC Nu tar vi stegen om igen o-a-a-a
|
|
102010221020
|
|
#LYRIC Så rör på era fötter, o-a-a-a
|
|
10,
|
|
1020102011201020,
|
|
10201022102020
|
|
#LYRIC Och vicka era höfter, o-la-la-la
|
|
00,
|
|
1020102011201020,
|
|
1020102210202000,
|
|
#LYRIC Gör som vi
|
|
1020102010221020,
|
|
1020
|
|
#LYRIC Till denna melody
|
|
102010221020,
|
|
1022102010221020,
|
|
3
|
|
#LYRIC So
|
|
0
|
|
#LYRIC So come
|
|
0
|
|
#LYRIC So come on
|
|
0,
|
|
|
|
#GOGOSTART
|
|
#LYRIC Så kom och dansa med oss, klappa era händer
|
|
1000201022102010,
|
|
0010201120102000,
|
|
#LYRIC Gör som vi gör, ta några steg åt vänster
|
|
1000201022102010,
|
|
0010221022112000,
|
|
#LYRIC Lyssna och lär, missa inte chansen
|
|
1000201022102010,
|
|
0010201120102000,
|
|
#LYRIC Nu är vi här med caramelldansen
|
|
1000221022102030,
|
|
03303030,
|
|
|
|
#GOGOEND
|
|
#LYRIC
|
|
|
|
|
|
#END
|
|
|
|
|
|
COURSE:Hard
|
|
LEVEL:5
|
|
BALLOON:16
|
|
SCOREINIT:550
|
|
SCOREDIFF:150
|
|
|
|
|
|
#START
|
|
|
|
|
|
1202,
|
|
0202,
|
|
0202,
|
|
50008021,
|
|
1202,
|
|
0202,
|
|
10200021,
|
|
,
|
|
7,
|
|
0008,
|
|
|
|
1020100011101000,
|
|
1020100022202000,
|
|
1020100011101000,
|
|
1020102011101000,
|
|
1020100011101000,
|
|
1020100022202000,
|
|
1020100011101000,
|
|
3,
|
|
|
|
1010202011102000,
|
|
1000202011102000,
|
|
1010202011102000,
|
|
1000202011102000,
|
|
10210121,
|
|
0020102000222020,
|
|
10210121,
|
|
1,
|
|
|
|
1010202011102000,
|
|
1000202011102000,
|
|
1010202011102000,
|
|
1000202011102000,
|
|
10210121,
|
|
0020102000222020,
|
|
10210121,
|
|
3,
|
|
|
|
#GOGOSTART
|
|
1000202010222010,
|
|
0020102011102000,
|
|
1000202010222010,
|
|
02121010,
|
|
1000201010222010,
|
|
0020102011102000,
|
|
10212011,
|
|
01103030,
|
|
10103433,
|
|
,
|
|
10103433,
|
|
,
|
|
20203434,
|
|
,
|
|
10103433,
|
|
,
|
|
|
|
#GOGOEND
|
|
1010202011102000,
|
|
1000202011102000,
|
|
1010202011102000,
|
|
1000202011102000,
|
|
10210121,
|
|
0020102000222020,
|
|
10210121,
|
|
1,
|
|
|
|
1010202011102000,
|
|
1000202011102000,
|
|
1010202011102000,
|
|
1000202011102000,
|
|
10210121,
|
|
0020102000222020,
|
|
10210121,
|
|
3,
|
|
|
|
#GOGOSTART
|
|
1000202010222010,
|
|
0020102011102000,
|
|
1000202010222010,
|
|
02121010,
|
|
1000201010222010,
|
|
0020102011102000,
|
|
10212011,
|
|
01103030,
|
|
|
|
#GOGOEND
|
|
|
|
|
|
#END
|
|
|
|
|
|
COURSE:Normal
|
|
LEVEL:5
|
|
BALLOON:14
|
|
SCOREINIT:750
|
|
SCOREDIFF:238
|
|
|
|
|
|
#START
|
|
|
|
|
|
3,
|
|
1,
|
|
1,
|
|
1100,
|
|
3,
|
|
1,
|
|
1,
|
|
1100,
|
|
7,
|
|
0008,
|
|
|
|
10201011,
|
|
1202,
|
|
10201011,
|
|
1200,
|
|
10201011,
|
|
1202,
|
|
1212,
|
|
50000800,
|
|
|
|
1212,
|
|
10110000,
|
|
1212,
|
|
10110000,
|
|
1212,
|
|
1212,
|
|
10110000,
|
|
,
|
|
1212,
|
|
10110000,
|
|
1212,
|
|
10110000,
|
|
1212,
|
|
1212,
|
|
1,
|
|
3,
|
|
|
|
#GOGOSTART
|
|
10111002,
|
|
02201000,
|
|
10111002,
|
|
02202000,
|
|
10111002,
|
|
02201000,
|
|
10111005,
|
|
0008,
|
|
30303333,
|
|
,
|
|
30303333,
|
|
,
|
|
40404444,
|
|
,
|
|
30303333,
|
|
,
|
|
|
|
#GOGOEND
|
|
1212,
|
|
10110000,
|
|
1212,
|
|
10110000,
|
|
1212,
|
|
1212,
|
|
10110000,
|
|
,
|
|
1212,
|
|
10110000,
|
|
1212,
|
|
10110000,
|
|
1212,
|
|
1212,
|
|
1,
|
|
3,
|
|
|
|
#GOGOSTART
|
|
10111002,
|
|
02201000,
|
|
10111002,
|
|
02202000,
|
|
10111002,
|
|
02201000,
|
|
10111005,
|
|
00000800,
|
|
|
|
#GOGOEND
|
|
|
|
|
|
#END
|
|
|
|
|
|
COURSE:Easy
|
|
LEVEL:4
|
|
BALLOON:10
|
|
SCOREINIT:600
|
|
SCOREDIFF:240
|
|
|
|
|
|
#START
|
|
|
|
|
|
3,
|
|
1,
|
|
1,
|
|
1100,
|
|
3,
|
|
1,
|
|
1,
|
|
1100,
|
|
7,
|
|
00000800,
|
|
|
|
1110,
|
|
1110,
|
|
1110,
|
|
1110,
|
|
1110,
|
|
1110,
|
|
1110,
|
|
500000000000000000000000000008000000000000000000,
|
|
|
|
1201,
|
|
1200,
|
|
1201,
|
|
1200,
|
|
2200,
|
|
11,
|
|
2200,
|
|
,
|
|
1201,
|
|
1200,
|
|
1201,
|
|
1200,
|
|
2200,
|
|
11,
|
|
2,
|
|
3,
|
|
|
|
#GOGOSTART
|
|
11,
|
|
1111,
|
|
11,
|
|
1111,
|
|
11,
|
|
1111,
|
|
11,
|
|
3,
|
|
3333,
|
|
,
|
|
3333,
|
|
,
|
|
4444,
|
|
,
|
|
3333,
|
|
,
|
|
|
|
#GOGOEND
|
|
1201,
|
|
1200,
|
|
1201,
|
|
1200,
|
|
2200,
|
|
11,
|
|
2200,
|
|
,
|
|
1201,
|
|
1200,
|
|
1201,
|
|
1200,
|
|
2200,
|
|
11,
|
|
2,
|
|
500000000000000000000000000008000000000000000000,
|
|
|
|
#GOGOSTART
|
|
11,
|
|
1111,
|
|
11,
|
|
1111,
|
|
11,
|
|
1111,
|
|
33,
|
|
600000000000000000000000000000000008000000000000,
|
|
|
|
#GOGOEND
|
|
|
|
|
|
#END
|
|
|