forked from ESE/ESE
925 lines
31 KiB
Plaintext
925 lines
31 KiB
Plaintext
//TJADB Project
|
|
TITLE:Chiisana Koi no Uta
|
|
TITLEJA:小さな恋のうた
|
|
SUBTITLE:--MONGOL800/Proposal Daisakusen
|
|
BPM:219.97
|
|
WAVE:Chiisana Koi no Uta.ogg
|
|
OFFSET:-0.961
|
|
DEMOSTART:48.231
|
|
|
|
COURSE:Oni
|
|
LEVEL:7
|
|
SCOREINIT:560
|
|
SCOREDIFF:145
|
|
|
|
|
|
#START
|
|
|
|
|
|
300000000000100000100000100000100000100000000000,
|
|
#BPMCHANGE 217.78
|
|
400000000000200000200000200000200000200000000000,
|
|
#BPMCHANGE 227.26
|
|
300000000000100000100000100000100000100000000000,
|
|
#BPMCHANGE 213.13
|
|
400000000000200000200000200000200000200000000000,
|
|
#BPMCHANGE 219.97
|
|
300000000000100000100000100000100000100000000000,
|
|
#BPMCHANGE 217.78
|
|
400000000000200000200000200000200000200000000000,
|
|
#BPMCHANGE 222.42
|
|
300000000000100000100000100000100000100000000000,
|
|
#BPMCHANGE 213.13
|
|
400000000000200000200000200000200000400000000000,
|
|
300000000000100000000000100000000000100000000000,
|
|
#BPMCHANGE 219.97
|
|
100000000000100000000000100000000000100000000000,
|
|
#BPMCHANGE 217.78
|
|
100000000000100000000000100000000000100000000000,
|
|
#BPMCHANGE 219.97
|
|
100000000000100000000000100000000000100000000000,
|
|
100000000000100000000000100000000000100000000000,
|
|
#BPMCHANGE 217.78
|
|
100000000000100000000000100000000000100000000000,
|
|
100000000000100000000000100000000000100000000000,
|
|
500000000000000000000000000000000000000000000008,
|
|
#BPMCHANGE 206.89
|
|
000000000000000000000000000000000000000000000000,
|
|
#BPMCHANGE 215.43
|
|
300000000000200000000000100000100000200000000000,
|
|
#BPMCHANGE 217.78
|
|
100000000000200000000000100000100000200000000000,
|
|
#BPMCHANGE 222.42
|
|
100000000000200000000000100000100000200000000000,
|
|
100000000000200000200000100000100000200000000000,
|
|
#BPMCHANGE 224.71
|
|
100000000000200000000000100000100000200000000000,
|
|
#BPMCHANGE 219.97
|
|
100000000000200000000000100000100000200000000000,
|
|
#BPMCHANGE 224.71
|
|
100000000000200000100000000000100000200000000000,
|
|
100000000000200200200000200000200000200000000000,
|
|
#BPMCHANGE 215.43
|
|
300000000000200000000000100000100000200000000000,
|
|
#BPMCHANGE 222.42
|
|
100000000000200000000000100000100000200000000000,
|
|
#BPMCHANGE 217.78
|
|
100000000000200000000000100000100000200000000000,
|
|
#BPMCHANGE 224.71
|
|
100000000000200000200000100000100000200000000000,
|
|
100000000000200000000000100000100000200000000000,
|
|
#BPMCHANGE 222.42
|
|
100000000000200000000000100000100000200000000000,
|
|
#BPMCHANGE 224.71
|
|
100000000000200000100000000000100000200000000000,
|
|
100000000000200200200000200000200000200000000000,
|
|
#BPMCHANGE 219.97
|
|
100000000000200000200000100000000000200000000000,
|
|
#BPMCHANGE 224.71
|
|
100000000000200000200000200000000000200000000000,
|
|
#BPMCHANGE 222.42
|
|
100000000000200000200000100000000000200000000000,
|
|
100000000000200000200000200000000000200000000000,
|
|
#BPMCHANGE 227.16
|
|
100000000000200200200000100000000000200000000000,
|
|
100000000000200200200000100000000000200000000000,
|
|
#BPMCHANGE 211.07
|
|
100000000000200200200000100000000000200200200000,
|
|
#BPMCHANGE 230.98
|
|
500000000000000000000000000000000000000000000000,
|
|
000000000000000000000008000000000000000000000000,
|
|
#BPMCHANGE 224.71
|
|
600000000000000000000000000000000000000000000008,
|
|
#BPMCHANGE 217.78
|
|
000000000000000000000000000000000000000000000000,
|
|
|
|
#GOGOSTART
|
|
#BPMCHANGE 227.26
|
|
300000000000200000000000100000100000200000000000,
|
|
#BPMCHANGE 224.71
|
|
100000000000200000100000000000100000200000000000,
|
|
100000000000200000000000100000100000200000000000,
|
|
#BPMCHANGE 232.32
|
|
100000000000200000100000000000100000200000000000,
|
|
#BPMCHANGE 219.97
|
|
100000000000200000000000100100100000200000000000,
|
|
#BPMCHANGE 232.32
|
|
100000000000200000000000100100100000200000000000,
|
|
#BPMCHANGE 224.71
|
|
300000000000100100100000400000000000200200200000,
|
|
#BPMCHANGE 222.42
|
|
300000000000000000000000200000000000200000000000,
|
|
#BPMCHANGE 215.43
|
|
300000000000200000000000100000100000200000000000,
|
|
#BPMCHANGE 229.88
|
|
100000000000200000100000000000100000200000000000,
|
|
#BPMCHANGE 224.71
|
|
100000000000200000000000100000100000200000000000,
|
|
#BPMCHANGE 227.26
|
|
100000000000200000100000000000100000200000000000,
|
|
#BPMCHANGE 219.97
|
|
100000000000200000000000100100100000200000000000,
|
|
#BPMCHANGE 229.88
|
|
100000000000200000000000100100100000200000000000,
|
|
#BPMCHANGE 227.26
|
|
300000000000100100100000400000000000200200200000,
|
|
300000000000000000000000200000000000200000000000,
|
|
#BPMCHANGE 221.53
|
|
500000000000000000000000000000000000000000000000,
|
|
000000000000000000000000000000000000000000000000,
|
|
000000000000000000000000000000000000000000000008,
|
|
#BPMCHANGE 224.71
|
|
000000000000000000000000400000000000000000000000,
|
|
#BPMCHANGE 227
|
|
600000000000000000000000000000000000000000000000,
|
|
#BPMCHANGE 229
|
|
000000000000000000000000000000000000000000000000,
|
|
#BPMCHANGE 224
|
|
000000000000000000000000000000000000000000000080,
|
|
#BPMCHANGE 227
|
|
000000000000000000000000400000000000000000000000,
|
|
400000000000000000000000300000000000000000000000,
|
|
300000000000000000000000400000000000400000000000,
|
|
300000000000300000000000000000000000400000000000,
|
|
600000000000000000000008000000000000300000000000,
|
|
#BPMCHANGE 236
|
|
300000000000300000000000000000000000400000000000,
|
|
#BPMCHANGE 240
|
|
400000000000300000000000300000000000000000000000,
|
|
#BPMCHANGE 228
|
|
400000000000000000000000000000000000000000000000,
|
|
|
|
#GOGOEND
|
|
000000000000000000000000000000000000000000000000,
|
|
000000000000000000000000000000000000000000000000,
|
|
000000000000000000000000000000000000000000000000,
|
|
#BPMCHANGE 231
|
|
300000000000000000000000100000000000100000000000,
|
|
#BPMCHANGE 249
|
|
100000000000100000000000100000000000100000000000,
|
|
#BPMCHANGE 246
|
|
200000000000200000000000200000000000200000000000,
|
|
#BPMCHANGE 251
|
|
200000000000200000000000200000000000200000000000,
|
|
100000000000100000000000100000000000100000000000,
|
|
#BPMCHANGE 245
|
|
100000000000100000000000100000000000100000000000,
|
|
#BPMCHANGE 236
|
|
200000000000200000000000200000000000200000000000,
|
|
#BPMCHANGE 262
|
|
200000000000200000000000200000000000200000000000,
|
|
#BPMCHANGE 241
|
|
300000000000300000000000000000000000000000000000,
|
|
#BPMCHANGE 242
|
|
400000000000400000000000000000000000000000000000,
|
|
#BPMCHANGE 243
|
|
300000000000300000000000000000000000000000000000,
|
|
#BPMCHANGE 242
|
|
400000000000400000000000000000000000000000000000,
|
|
#BPMCHANGE 244
|
|
600000000000000000000000000000000000000000000008,
|
|
#BPMCHANGE 242
|
|
000000000000000000000000000000000000000000000000,
|
|
300000000000300000000000300000000000300000000000,
|
|
#BPMCHANGE 239
|
|
300000300000300000000000000000000000000000000000,
|
|
|
|
#GOGOSTART
|
|
#BPMCHANGE 251
|
|
300000000000200000000000100000100000200000000000,
|
|
#BPMCHANGE 235
|
|
100000000000200000100000000000100000200000000000,
|
|
100000000000200000000000100000100000200000000000,
|
|
#BPMCHANGE 241
|
|
100000000000200000100000000000100000200000000000,
|
|
100000000000200000000000100100100000200000000000,
|
|
100000000000200000000000100100100000200000000000,
|
|
300000000000100100100000400000000000200200200000,
|
|
#BPMCHANGE 239
|
|
300000000000000000000000200000000000200000000000,
|
|
#BPMCHANGE 238
|
|
300000000000200000000000100000200000200000000000,
|
|
100000000000200000100000000000100000200000000000,
|
|
#BPMCHANGE 241
|
|
100000000000200000000000100000200000200000000000,
|
|
#BPMCHANGE 242
|
|
100000000000200000100000000000100000200000000000,
|
|
100000000000200000000000100100100000200000000000,
|
|
#BPMCHANGE 243
|
|
100000000000200000000000100100100000200000000000,
|
|
300000000000100100100000400000000000200200200000,
|
|
300000000000000000000000200000000000200000000000,
|
|
500000000000000000000000000000000000000000000000,
|
|
#BPMCHANGE 230
|
|
000000000000000000000000000000000000000000000000,
|
|
000000000000000000000000000000000000000000000008,
|
|
#BPMCHANGE 241
|
|
000000000000000000000000400000000000000000000000,
|
|
#BPMCHANGE 239
|
|
600000000000000000000000000000000000000000000000,
|
|
000000000000000000000000000000000000000000000000,
|
|
000000000000000000000000000000000000000000000008,
|
|
000000000000000000000000400000000000000000000000,
|
|
400000000000000000000000300000000000000000000000,
|
|
300000000000000000000000400000000000400000000000,
|
|
300000000000300000000000000000000000400000000000,
|
|
#BPMCHANGE 242
|
|
600000000000000000000008000000000000300000000000,
|
|
#BPMCHANGE 243
|
|
300000000000300000000000000000000000300000000000,
|
|
400000000000000000000000400000000000000000000000,
|
|
300000000000000000000000000000000000000000000000,
|
|
|
|
#GOGOEND
|
|
|
|
|
|
#END
|
|
|
|
|
|
COURSE:Hard
|
|
LEVEL:7
|
|
SCOREINIT:480
|
|
SCOREDIFF:120
|
|
|
|
|
|
#START
|
|
|
|
|
|
300000000000100000100000100000100000100000000000,
|
|
#BPMCHANGE 217.78
|
|
400000000000200000200000200000200000200000000000,
|
|
#BPMCHANGE 227.26
|
|
300000000000100000100000100000100000100000000000,
|
|
#BPMCHANGE 213.13
|
|
400000000000200000200000200000200000200000000000,
|
|
#BPMCHANGE 219.97
|
|
300000000000100000100000100000100000100000000000,
|
|
#BPMCHANGE 217.78
|
|
400000000000200000200000200000200000200000000000,
|
|
#BPMCHANGE 222.42
|
|
300000000000100000100000100000100000100000000000,
|
|
#BPMCHANGE 213.13
|
|
400000000000200000200000200000200000400000000000,
|
|
300000000000100000000000100000000000100000000000,
|
|
#BPMCHANGE 219.97
|
|
100000000000100000000000100000000000100000000000,
|
|
#BPMCHANGE 217.78
|
|
100000000000100000000000100000000000100000000000,
|
|
#BPMCHANGE 219.97
|
|
100000000000100000000000100000000000100000000000,
|
|
100000000000100000000000100000000000100000000000,
|
|
#BPMCHANGE 217.78
|
|
100000000000100000000000100000000000100000000000,
|
|
100000000000100000000000100000000000100000000000,
|
|
500000000000000000000000000000000000000000000008,
|
|
#BPMCHANGE 206.89
|
|
000000000000000000000000000000000000000000000000,
|
|
#BPMCHANGE 215.43
|
|
300000000000200000000000100000100000200000000000,
|
|
#BPMCHANGE 217.78
|
|
100000000000200000000000100000100000200000000000,
|
|
#BPMCHANGE 222.42
|
|
100000000000200000000000100000100000200000000000,
|
|
100000000000200000200000100000100000200000000000,
|
|
#BPMCHANGE 224.71
|
|
100000000000200000000000100000100000200000000000,
|
|
#BPMCHANGE 219.97
|
|
100000000000200000000000100000100000200000000000,
|
|
#BPMCHANGE 224.71
|
|
100000000000200000100000000000100000200000000000,
|
|
100000000000200200200000200000200000200000000000,
|
|
#BPMCHANGE 215.43
|
|
300000000000200000000000100000100000200000000000,
|
|
#BPMCHANGE 222.42
|
|
100000000000200000000000100000100000200000000000,
|
|
#BPMCHANGE 217.78
|
|
100000000000200000000000100000100000200000000000,
|
|
#BPMCHANGE 224.71
|
|
100000000000200000200000100000100000200000000000,
|
|
100000000000200000000000100000100000200000000000,
|
|
#BPMCHANGE 222.42
|
|
100000000000200000000000100000100000200000000000,
|
|
#BPMCHANGE 224.71
|
|
100000000000200000100000000000100000200000000000,
|
|
100000000000200200200000200000200000200000000000,
|
|
#BPMCHANGE 219.97
|
|
100000000000200000200000100000000000200000000000,
|
|
#BPMCHANGE 224.71
|
|
100000000000200000200000200000000000200000000000,
|
|
#BPMCHANGE 222.42
|
|
100000000000200000200000100000000000200000000000,
|
|
100000000000200000200000200000000000200000000000,
|
|
#BPMCHANGE 227.16
|
|
100000000000200200200000100000000000200000000000,
|
|
100000000000200200200000100000000000200000000000,
|
|
#BPMCHANGE 211.07
|
|
100000000000200200200000100000000000200200200000,
|
|
#BPMCHANGE 230.98
|
|
500000000000000000000000000000000000000000000000,
|
|
000000000000000000000008000000000000000000000000,
|
|
#BPMCHANGE 224.71
|
|
600000000000000000000000000000000000000000000008,
|
|
#BPMCHANGE 217.78
|
|
000000000000000000000000000000000000000000000000,
|
|
|
|
#GOGOSTART
|
|
#BPMCHANGE 227.26
|
|
300000000000200000000000100000100000200000000000,
|
|
#BPMCHANGE 224.71
|
|
100000000000200000100000000000100000200000000000,
|
|
100000000000200000000000100000100000200000000000,
|
|
#BPMCHANGE 232.32
|
|
100000000000200000100000000000100000200000000000,
|
|
#BPMCHANGE 219.97
|
|
100000000000200000000000100100100000200000000000,
|
|
#BPMCHANGE 232.32
|
|
100000000000200000000000100100100000200000000000,
|
|
#BPMCHANGE 224.71
|
|
300000000000100100100000400000000000200200200000,
|
|
#BPMCHANGE 222.42
|
|
300000000000000000000000200000000000200000000000,
|
|
#BPMCHANGE 215.43
|
|
300000000000200000000000100000100000200000000000,
|
|
#BPMCHANGE 229.88
|
|
100000000000200000100000000000100000200000000000,
|
|
#BPMCHANGE 224.71
|
|
100000000000200000000000100000100000200000000000,
|
|
#BPMCHANGE 227.26
|
|
100000000000200000100000000000100000200000000000,
|
|
#BPMCHANGE 219.97
|
|
100000000000200000000000100100100000200000000000,
|
|
#BPMCHANGE 229.88
|
|
100000000000200000000000100100100000200000000000,
|
|
#BPMCHANGE 227.26
|
|
300000000000100100100000400000000000200200200000,
|
|
300000000000000000000000200000000000200000000000,
|
|
#BPMCHANGE 221.53
|
|
500000000000000000000000000000000000000000000000,
|
|
000000000000000000000000000000000000000000000000,
|
|
000000000000000000000000000000000000000000000008,
|
|
#BPMCHANGE 224.71
|
|
000000000000000000000000400000000000000000000000,
|
|
#BPMCHANGE 227
|
|
600000000000000000000000000000000000000000000000,
|
|
#BPMCHANGE 229
|
|
000000000000000000000000000000000000000000000000,
|
|
#BPMCHANGE 224
|
|
000000000000000000000000000000000000000000000080,
|
|
#BPMCHANGE 227
|
|
000000000000000000000000400000000000000000000000,
|
|
400000000000000000000000300000000000000000000000,
|
|
300000000000000000000000400000000000400000000000,
|
|
300000000000300000000000000000000000400000000000,
|
|
600000000000000000000008000000000000300000000000,
|
|
#BPMCHANGE 236
|
|
300000000000300000000000000000000000400000000000,
|
|
#BPMCHANGE 240
|
|
400000000000300000000000300000000000000000000000,
|
|
#BPMCHANGE 228
|
|
400000000000000000000000000000000000000000000000,
|
|
|
|
#GOGOEND
|
|
000000000000000000000000000000000000000000000000,
|
|
000000000000000000000000000000000000000000000000,
|
|
000000000000000000000000000000000000000000000000,
|
|
#BPMCHANGE 231
|
|
300000000000000000000000100000000000100000000000,
|
|
#BPMCHANGE 249
|
|
100000000000100000000000100000000000100000000000,
|
|
#BPMCHANGE 246
|
|
200000000000200000000000200000000000200000000000,
|
|
#BPMCHANGE 251
|
|
200000000000200000000000200000000000200000000000,
|
|
100000000000100000000000100000000000100000000000,
|
|
#BPMCHANGE 245
|
|
100000000000100000000000100000000000100000000000,
|
|
#BPMCHANGE 236
|
|
200000000000200000000000200000000000200000000000,
|
|
#BPMCHANGE 262
|
|
200000000000200000000000200000000000200000000000,
|
|
#BPMCHANGE 241
|
|
300000000000300000000000000000000000000000000000,
|
|
#BPMCHANGE 242
|
|
400000000000400000000000000000000000000000000000,
|
|
#BPMCHANGE 243
|
|
300000000000300000000000000000000000000000000000,
|
|
#BPMCHANGE 242
|
|
400000000000400000000000000000000000000000000000,
|
|
#BPMCHANGE 244
|
|
600000000000000000000000000000000000000000000008,
|
|
#BPMCHANGE 242
|
|
000000000000000000000000000000000000000000000000,
|
|
300000000000300000000000300000000000300000000000,
|
|
#BPMCHANGE 239
|
|
300000300000300000000000000000000000000000000000,
|
|
|
|
#GOGOSTART
|
|
#BPMCHANGE 251
|
|
300000000000200000000000100000100000200000000000,
|
|
#BPMCHANGE 235
|
|
100000000000200000100000000000100000200000000000,
|
|
100000000000200000000000100000100000200000000000,
|
|
#BPMCHANGE 241
|
|
100000000000200000100000000000100000200000000000,
|
|
100000000000200000000000100100100000200000000000,
|
|
100000000000200000000000100100100000200000000000,
|
|
300000000000100100100000400000000000200200200000,
|
|
#BPMCHANGE 239
|
|
300000000000000000000000200000000000200000000000,
|
|
#BPMCHANGE 238
|
|
300000000000200000000000100000200000200000000000,
|
|
100000000000200000100000000000100000200000000000,
|
|
#BPMCHANGE 241
|
|
100000000000200000000000100000200000200000000000,
|
|
#BPMCHANGE 242
|
|
100000000000200000100000000000100000200000000000,
|
|
100000000000200000000000100100100000200000000000,
|
|
#BPMCHANGE 243
|
|
100000000000200000000000100100100000200000000000,
|
|
300000000000100100100000400000000000200200200000,
|
|
300000000000000000000000200000000000200000000000,
|
|
500000000000000000000000000000000000000000000000,
|
|
#BPMCHANGE 230
|
|
000000000000000000000000000000000000000000000000,
|
|
000000000000000000000000000000000000000000000008,
|
|
#BPMCHANGE 241
|
|
000000000000000000000000400000000000000000000000,
|
|
#BPMCHANGE 239
|
|
600000000000000000000000000000000000000000000000,
|
|
000000000000000000000000000000000000000000000000,
|
|
000000000000000000000000000000000000000000000008,
|
|
000000000000000000000000400000000000000000000000,
|
|
400000000000000000000000300000000000000000000000,
|
|
300000000000000000000000400000000000400000000000,
|
|
300000000000300000000000000000000000400000000000,
|
|
#BPMCHANGE 242
|
|
600000000000000000000008000000000000300000000000,
|
|
#BPMCHANGE 243
|
|
300000000000300000000000000000000000300000000000,
|
|
400000000000000000000000400000000000000000000000,
|
|
300000000000000000000000000000000000000000000000,
|
|
|
|
#GOGOEND
|
|
|
|
|
|
#END
|
|
|
|
|
|
COURSE:Normal
|
|
LEVEL:5
|
|
SCOREINIT:350
|
|
SCOREDIFF:78
|
|
|
|
|
|
#START
|
|
|
|
|
|
300000000000100000100000100000100000100000000000,
|
|
#BPMCHANGE 217.78
|
|
400000000000200000200000200000200000200000000000,
|
|
#BPMCHANGE 227.26
|
|
300000000000100000100000100000100000100000000000,
|
|
#BPMCHANGE 213.13
|
|
400000000000200000200000200000200000200000000000,
|
|
#BPMCHANGE 219.97
|
|
300000000000100000100000100000100000100000000000,
|
|
#BPMCHANGE 217.78
|
|
400000000000200000200000200000200000200000000000,
|
|
#BPMCHANGE 222.42
|
|
300000000000100000100000100000100000100000000000,
|
|
#BPMCHANGE 213.13
|
|
400000000000200000200000200000200000400000000000,
|
|
300000000000100000000000100000000000100000000000,
|
|
#BPMCHANGE 219.97
|
|
100000000000100000000000100000000000100000000000,
|
|
#BPMCHANGE 217.78
|
|
100000000000100000000000100000000000100000000000,
|
|
#BPMCHANGE 219.97
|
|
100000000000100000000000100000000000100000000000,
|
|
100000000000100000000000100000000000100000000000,
|
|
#BPMCHANGE 217.78
|
|
100000000000100000000000100000000000100000000000,
|
|
100000000000100000000000100000000000100000000000,
|
|
500000000000000000000000000000000000000000000008,
|
|
#BPMCHANGE 206.89
|
|
000000000000000000000000000000000000000000000000,
|
|
#BPMCHANGE 215.43
|
|
300000000000200000000000100000100000200000000000,
|
|
#BPMCHANGE 217.78
|
|
100000000000200000000000100000100000200000000000,
|
|
#BPMCHANGE 222.42
|
|
100000000000200000000000100000100000200000000000,
|
|
100000000000200000200000100000100000200000000000,
|
|
#BPMCHANGE 224.71
|
|
100000000000200000000000100000100000200000000000,
|
|
#BPMCHANGE 219.97
|
|
100000000000200000000000100000100000200000000000,
|
|
#BPMCHANGE 224.71
|
|
100000000000200000100000000000100000200000000000,
|
|
100000000000200200200000200000200000200000000000,
|
|
#BPMCHANGE 215.43
|
|
300000000000200000000000100000100000200000000000,
|
|
#BPMCHANGE 222.42
|
|
100000000000200000000000100000100000200000000000,
|
|
#BPMCHANGE 217.78
|
|
100000000000200000000000100000100000200000000000,
|
|
#BPMCHANGE 224.71
|
|
100000000000200000200000100000100000200000000000,
|
|
100000000000200000000000100000100000200000000000,
|
|
#BPMCHANGE 222.42
|
|
100000000000200000000000100000100000200000000000,
|
|
#BPMCHANGE 224.71
|
|
100000000000200000100000000000100000200000000000,
|
|
100000000000200200200000200000200000200000000000,
|
|
#BPMCHANGE 219.97
|
|
100000000000200000200000100000000000200000000000,
|
|
#BPMCHANGE 224.71
|
|
100000000000200000200000200000000000200000000000,
|
|
#BPMCHANGE 222.42
|
|
100000000000200000200000100000000000200000000000,
|
|
100000000000200000200000200000000000200000000000,
|
|
#BPMCHANGE 227.16
|
|
100000000000200200200000100000000000200000000000,
|
|
100000000000200200200000100000000000200000000000,
|
|
#BPMCHANGE 211.07
|
|
100000000000200200200000100000000000200200200000,
|
|
#BPMCHANGE 230.98
|
|
500000000000000000000000000000000000000000000000,
|
|
000000000000000000000008000000000000000000000000,
|
|
#BPMCHANGE 224.71
|
|
600000000000000000000000000000000000000000000008,
|
|
#BPMCHANGE 217.78
|
|
000000000000000000000000000000000000000000000000,
|
|
|
|
#GOGOSTART
|
|
#BPMCHANGE 227.26
|
|
300000000000200000000000100000100000200000000000,
|
|
#BPMCHANGE 224.71
|
|
100000000000200000100000000000100000200000000000,
|
|
100000000000200000000000100000100000200000000000,
|
|
#BPMCHANGE 232.32
|
|
100000000000200000100000000000100000200000000000,
|
|
#BPMCHANGE 219.97
|
|
100000000000200000000000100100100000200000000000,
|
|
#BPMCHANGE 232.32
|
|
100000000000200000000000100100100000200000000000,
|
|
#BPMCHANGE 224.71
|
|
300000000000100100100000400000000000200200200000,
|
|
#BPMCHANGE 222.42
|
|
300000000000000000000000200000000000200000000000,
|
|
#BPMCHANGE 215.43
|
|
300000000000200000000000100000100000200000000000,
|
|
#BPMCHANGE 229.88
|
|
100000000000200000100000000000100000200000000000,
|
|
#BPMCHANGE 224.71
|
|
100000000000200000000000100000100000200000000000,
|
|
#BPMCHANGE 227.26
|
|
100000000000200000100000000000100000200000000000,
|
|
#BPMCHANGE 219.97
|
|
100000000000200000000000100100100000200000000000,
|
|
#BPMCHANGE 229.88
|
|
100000000000200000000000100100100000200000000000,
|
|
#BPMCHANGE 227.26
|
|
300000000000100100100000400000000000200200200000,
|
|
300000000000000000000000200000000000200000000000,
|
|
#BPMCHANGE 221.53
|
|
500000000000000000000000000000000000000000000000,
|
|
000000000000000000000000000000000000000000000000,
|
|
000000000000000000000000000000000000000000000008,
|
|
#BPMCHANGE 224.71
|
|
000000000000000000000000400000000000000000000000,
|
|
#BPMCHANGE 227
|
|
600000000000000000000000000000000000000000000000,
|
|
#BPMCHANGE 229
|
|
000000000000000000000000000000000000000000000000,
|
|
#BPMCHANGE 224
|
|
000000000000000000000000000000000000000000000080,
|
|
#BPMCHANGE 227
|
|
000000000000000000000000400000000000000000000000,
|
|
400000000000000000000000300000000000000000000000,
|
|
300000000000000000000000400000000000400000000000,
|
|
300000000000300000000000000000000000400000000000,
|
|
600000000000000000000008000000000000300000000000,
|
|
#BPMCHANGE 236
|
|
300000000000300000000000000000000000400000000000,
|
|
#BPMCHANGE 240
|
|
400000000000300000000000300000000000000000000000,
|
|
#BPMCHANGE 228
|
|
400000000000000000000000000000000000000000000000,
|
|
|
|
#GOGOEND
|
|
000000000000000000000000000000000000000000000000,
|
|
000000000000000000000000000000000000000000000000,
|
|
000000000000000000000000000000000000000000000000,
|
|
#BPMCHANGE 231
|
|
300000000000000000000000100000000000100000000000,
|
|
#BPMCHANGE 249
|
|
100000000000100000000000100000000000100000000000,
|
|
#BPMCHANGE 246
|
|
200000000000200000000000200000000000200000000000,
|
|
#BPMCHANGE 251
|
|
200000000000200000000000200000000000200000000000,
|
|
100000000000100000000000100000000000100000000000,
|
|
#BPMCHANGE 245
|
|
100000000000100000000000100000000000100000000000,
|
|
#BPMCHANGE 236
|
|
200000000000200000000000200000000000200000000000,
|
|
#BPMCHANGE 262
|
|
200000000000200000000000200000000000200000000000,
|
|
#BPMCHANGE 241
|
|
300000000000300000000000000000000000000000000000,
|
|
#BPMCHANGE 242
|
|
400000000000400000000000000000000000000000000000,
|
|
#BPMCHANGE 243
|
|
300000000000300000000000000000000000000000000000,
|
|
#BPMCHANGE 242
|
|
400000000000400000000000000000000000000000000000,
|
|
#BPMCHANGE 244
|
|
600000000000000000000000000000000000000000000008,
|
|
#BPMCHANGE 242
|
|
000000000000000000000000000000000000000000000000,
|
|
300000000000300000000000300000000000300000000000,
|
|
#BPMCHANGE 239
|
|
300000300000300000000000000000000000000000000000,
|
|
|
|
#GOGOSTART
|
|
#BPMCHANGE 251
|
|
300000000000200000000000100000100000200000000000,
|
|
#BPMCHANGE 235
|
|
100000000000200000100000000000100000200000000000,
|
|
100000000000200000000000100000100000200000000000,
|
|
#BPMCHANGE 241
|
|
100000000000200000100000000000100000200000000000,
|
|
100000000000200000000000100100100000200000000000,
|
|
100000000000200000000000100100100000200000000000,
|
|
300000000000100100100000400000000000200200200000,
|
|
#BPMCHANGE 239
|
|
300000000000000000000000200000000000200000000000,
|
|
#BPMCHANGE 238
|
|
300000000000200000000000100000200000200000000000,
|
|
100000000000200000100000000000100000200000000000,
|
|
#BPMCHANGE 241
|
|
100000000000200000000000100000200000200000000000,
|
|
#BPMCHANGE 242
|
|
100000000000200000100000000000100000200000000000,
|
|
100000000000200000000000100100100000200000000000,
|
|
#BPMCHANGE 243
|
|
100000000000200000000000100100100000200000000000,
|
|
300000000000100100100000400000000000200200200000,
|
|
300000000000000000000000200000000000200000000000,
|
|
500000000000000000000000000000000000000000000000,
|
|
#BPMCHANGE 230
|
|
000000000000000000000000000000000000000000000000,
|
|
000000000000000000000000000000000000000000000008,
|
|
#BPMCHANGE 241
|
|
000000000000000000000000400000000000000000000000,
|
|
#BPMCHANGE 239
|
|
600000000000000000000000000000000000000000000000,
|
|
000000000000000000000000000000000000000000000000,
|
|
000000000000000000000000000000000000000000000008,
|
|
000000000000000000000000400000000000000000000000,
|
|
400000000000000000000000300000000000000000000000,
|
|
300000000000000000000000400000000000400000000000,
|
|
300000000000300000000000000000000000400000000000,
|
|
#BPMCHANGE 242
|
|
600000000000000000000008000000000000300000000000,
|
|
#BPMCHANGE 243
|
|
300000000000300000000000000000000000300000000000,
|
|
400000000000000000000000400000000000000000000000,
|
|
300000000000000000000000000000000000000000000000,
|
|
|
|
#GOGOEND
|
|
|
|
|
|
#END
|
|
|
|
|
|
COURSE:Easy
|
|
LEVEL:3
|
|
SCOREINIT:200
|
|
SCOREDIFF:35
|
|
|
|
|
|
#START
|
|
|
|
|
|
300000000000100000100000100000100000100000000000,
|
|
#BPMCHANGE 217.78
|
|
400000000000200000200000200000200000200000000000,
|
|
#BPMCHANGE 227.26
|
|
300000000000100000100000100000100000100000000000,
|
|
#BPMCHANGE 213.13
|
|
400000000000200000200000200000200000200000000000,
|
|
#BPMCHANGE 219.97
|
|
300000000000100000100000100000100000100000000000,
|
|
#BPMCHANGE 217.78
|
|
400000000000200000200000200000200000200000000000,
|
|
#BPMCHANGE 222.42
|
|
300000000000100000100000100000100000100000000000,
|
|
#BPMCHANGE 213.13
|
|
400000000000200000200000200000200000400000000000,
|
|
300000000000100000000000100000000000100000000000,
|
|
#BPMCHANGE 219.97
|
|
100000000000100000000000100000000000100000000000,
|
|
#BPMCHANGE 217.78
|
|
100000000000100000000000100000000000100000000000,
|
|
#BPMCHANGE 219.97
|
|
100000000000100000000000100000000000100000000000,
|
|
100000000000100000000000100000000000100000000000,
|
|
#BPMCHANGE 217.78
|
|
100000000000100000000000100000000000100000000000,
|
|
100000000000100000000000100000000000100000000000,
|
|
500000000000000000000000000000000000000000000008,
|
|
#BPMCHANGE 206.89
|
|
000000000000000000000000000000000000000000000000,
|
|
#BPMCHANGE 215.43
|
|
300000000000200000000000100000100000200000000000,
|
|
#BPMCHANGE 217.78
|
|
100000000000200000000000100000100000200000000000,
|
|
#BPMCHANGE 222.42
|
|
100000000000200000000000100000100000200000000000,
|
|
100000000000200000200000100000100000200000000000,
|
|
#BPMCHANGE 224.71
|
|
100000000000200000000000100000100000200000000000,
|
|
#BPMCHANGE 219.97
|
|
100000000000200000000000100000100000200000000000,
|
|
#BPMCHANGE 224.71
|
|
100000000000200000100000000000100000200000000000,
|
|
100000000000200200200000200000200000200000000000,
|
|
#BPMCHANGE 215.43
|
|
300000000000200000000000100000100000200000000000,
|
|
#BPMCHANGE 222.42
|
|
100000000000200000000000100000100000200000000000,
|
|
#BPMCHANGE 217.78
|
|
100000000000200000000000100000100000200000000000,
|
|
#BPMCHANGE 224.71
|
|
100000000000200000200000100000100000200000000000,
|
|
100000000000200000000000100000100000200000000000,
|
|
#BPMCHANGE 222.42
|
|
100000000000200000000000100000100000200000000000,
|
|
#BPMCHANGE 224.71
|
|
100000000000200000100000000000100000200000000000,
|
|
100000000000200200200000200000200000200000000000,
|
|
#BPMCHANGE 219.97
|
|
100000000000200000200000100000000000200000000000,
|
|
#BPMCHANGE 224.71
|
|
100000000000200000200000200000000000200000000000,
|
|
#BPMCHANGE 222.42
|
|
100000000000200000200000100000000000200000000000,
|
|
100000000000200000200000200000000000200000000000,
|
|
#BPMCHANGE 227.16
|
|
100000000000200200200000100000000000200000000000,
|
|
100000000000200200200000100000000000200000000000,
|
|
#BPMCHANGE 211.07
|
|
100000000000200200200000100000000000200200200000,
|
|
#BPMCHANGE 230.98
|
|
500000000000000000000000000000000000000000000000,
|
|
000000000000000000000008000000000000000000000000,
|
|
#BPMCHANGE 224.71
|
|
600000000000000000000000000000000000000000000008,
|
|
#BPMCHANGE 217.78
|
|
000000000000000000000000000000000000000000000000,
|
|
|
|
#GOGOSTART
|
|
#BPMCHANGE 227.26
|
|
300000000000200000000000100000100000200000000000,
|
|
#BPMCHANGE 224.71
|
|
100000000000200000100000000000100000200000000000,
|
|
100000000000200000000000100000100000200000000000,
|
|
#BPMCHANGE 232.32
|
|
100000000000200000100000000000100000200000000000,
|
|
#BPMCHANGE 219.97
|
|
100000000000200000000000100100100000200000000000,
|
|
#BPMCHANGE 232.32
|
|
100000000000200000000000100100100000200000000000,
|
|
#BPMCHANGE 224.71
|
|
300000000000100100100000400000000000200200200000,
|
|
#BPMCHANGE 222.42
|
|
300000000000000000000000200000000000200000000000,
|
|
#BPMCHANGE 215.43
|
|
300000000000200000000000100000100000200000000000,
|
|
#BPMCHANGE 229.88
|
|
100000000000200000100000000000100000200000000000,
|
|
#BPMCHANGE 224.71
|
|
100000000000200000000000100000100000200000000000,
|
|
#BPMCHANGE 227.26
|
|
100000000000200000100000000000100000200000000000,
|
|
#BPMCHANGE 219.97
|
|
100000000000200000000000100100100000200000000000,
|
|
#BPMCHANGE 229.88
|
|
100000000000200000000000100100100000200000000000,
|
|
#BPMCHANGE 227.26
|
|
300000000000100100100000400000000000200200200000,
|
|
300000000000000000000000200000000000200000000000,
|
|
#BPMCHANGE 221.53
|
|
500000000000000000000000000000000000000000000000,
|
|
000000000000000000000000000000000000000000000000,
|
|
000000000000000000000000000000000000000000000008,
|
|
#BPMCHANGE 224.71
|
|
000000000000000000000000400000000000000000000000,
|
|
#BPMCHANGE 227
|
|
600000000000000000000000000000000000000000000000,
|
|
#BPMCHANGE 229
|
|
000000000000000000000000000000000000000000000000,
|
|
#BPMCHANGE 224
|
|
000000000000000000000000000000000000000000000080,
|
|
#BPMCHANGE 227
|
|
000000000000000000000000400000000000000000000000,
|
|
400000000000000000000000300000000000000000000000,
|
|
300000000000000000000000400000000000400000000000,
|
|
300000000000300000000000000000000000400000000000,
|
|
600000000000000000000008000000000000300000000000,
|
|
#BPMCHANGE 236
|
|
300000000000300000000000000000000000400000000000,
|
|
#BPMCHANGE 240
|
|
400000000000300000000000300000000000000000000000,
|
|
#BPMCHANGE 228
|
|
400000000000000000000000000000000000000000000000,
|
|
|
|
#GOGOEND
|
|
000000000000000000000000000000000000000000000000,
|
|
000000000000000000000000000000000000000000000000,
|
|
000000000000000000000000000000000000000000000000,
|
|
#BPMCHANGE 231
|
|
300000000000000000000000100000000000100000000000,
|
|
#BPMCHANGE 249
|
|
100000000000100000000000100000000000100000000000,
|
|
#BPMCHANGE 246
|
|
200000000000200000000000200000000000200000000000,
|
|
#BPMCHANGE 251
|
|
200000000000200000000000200000000000200000000000,
|
|
100000000000100000000000100000000000100000000000,
|
|
#BPMCHANGE 245
|
|
100000000000100000000000100000000000100000000000,
|
|
#BPMCHANGE 236
|
|
200000000000200000000000200000000000200000000000,
|
|
#BPMCHANGE 262
|
|
200000000000200000000000200000000000200000000000,
|
|
#BPMCHANGE 241
|
|
300000000000300000000000000000000000000000000000,
|
|
#BPMCHANGE 242
|
|
400000000000400000000000000000000000000000000000,
|
|
#BPMCHANGE 243
|
|
300000000000300000000000000000000000000000000000,
|
|
#BPMCHANGE 242
|
|
400000000000400000000000000000000000000000000000,
|
|
#BPMCHANGE 244
|
|
600000000000000000000000000000000000000000000008,
|
|
#BPMCHANGE 242
|
|
000000000000000000000000000000000000000000000000,
|
|
300000000000300000000000300000000000300000000000,
|
|
#BPMCHANGE 239
|
|
300000300000300000000000000000000000000000000000,
|
|
|
|
#GOGOSTART
|
|
#BPMCHANGE 251
|
|
300000000000200000000000100000100000200000000000,
|
|
#BPMCHANGE 235
|
|
100000000000200000100000000000100000200000000000,
|
|
100000000000200000000000100000100000200000000000,
|
|
#BPMCHANGE 241
|
|
100000000000200000100000000000100000200000000000,
|
|
100000000000200000000000100100100000200000000000,
|
|
100000000000200000000000100100100000200000000000,
|
|
300000000000100100100000400000000000200200200000,
|
|
#BPMCHANGE 239
|
|
300000000000000000000000200000000000200000000000,
|
|
#BPMCHANGE 238
|
|
300000000000200000000000100000200000200000000000,
|
|
100000000000200000100000000000100000200000000000,
|
|
#BPMCHANGE 241
|
|
100000000000200000000000100000200000200000000000,
|
|
#BPMCHANGE 242
|
|
100000000000200000100000000000100000200000000000,
|
|
100000000000200000000000100100100000200000000000,
|
|
#BPMCHANGE 243
|
|
100000000000200000000000100100100000200000000000,
|
|
300000000000100100100000400000000000200200200000,
|
|
300000000000000000000000200000000000200000000000,
|
|
500000000000000000000000000000000000000000000000,
|
|
#BPMCHANGE 230
|
|
000000000000000000000000000000000000000000000000,
|
|
000000000000000000000000000000000000000000000008,
|
|
#BPMCHANGE 241
|
|
000000000000000000000000400000000000000000000000,
|
|
#BPMCHANGE 239
|
|
600000000000000000000000000000000000000000000000,
|
|
000000000000000000000000000000000000000000000000,
|
|
000000000000000000000000000000000000000000000008,
|
|
000000000000000000000000400000000000000000000000,
|
|
400000000000000000000000300000000000000000000000,
|
|
300000000000000000000000400000000000400000000000,
|
|
300000000000300000000000000000000000400000000000,
|
|
#BPMCHANGE 242
|
|
600000000000000000000008000000000000300000000000,
|
|
#BPMCHANGE 243
|
|
300000000000300000000000000000000000300000000000,
|
|
400000000000000000000000400000000000000000000000,
|
|
300000000000000000000000000000000000000000000000,
|
|
|
|
#GOGOEND
|
|
|
|
|
|
#END
|
|
|