forked from ESE/ESE
417 lines
9.8 KiB
Plaintext
417 lines
9.8 KiB
Plaintext
//TJADB Project
|
|
TITLE:Chokotto LOVE
|
|
TITLEJA:ちょこっとLove
|
|
SUBTITLE:--Petitmoni
|
|
BPM:167
|
|
WAVE:Chokotto LOVE.ogg
|
|
OFFSET:-2.507
|
|
DEMOSTART:84.239
|
|
|
|
COURSE:Oni
|
|
LEVEL:5
|
|
|
|
|
|
#START
|
|
|
|
|
|
0011,
|
|
,
|
|
0011,
|
|
1,
|
|
1,
|
|
101
|
|
#BPMCHANGE 170
|
|
0,
|
|
#BPMCHANGE 165
|
|
1111,
|
|
#BPMCHANGE 167
|
|
00001212,
|
|
00001111,
|
|
00001210,
|
|
01011110,
|
|
00001212,
|
|
00001111,
|
|
00001210,
|
|
01011110,
|
|
|
|
#BRANCHSTART p,75,90
|
|
#N
|
|
1111,
|
|
1112,
|
|
1112,
|
|
11111020,
|
|
1111,
|
|
1112,
|
|
1111,
|
|
1112,
|
|
1112,
|
|
11111000,
|
|
|
|
#E
|
|
1111,
|
|
1112,
|
|
1112,
|
|
11111020,
|
|
1111,
|
|
1112,
|
|
1111,
|
|
1112,
|
|
1112,
|
|
11111000,
|
|
|
|
#M
|
|
1111,
|
|
10221020,
|
|
1112,
|
|
11111020,
|
|
1111,
|
|
10221020,
|
|
1112,
|
|
1010101010222020,
|
|
11111020,
|
|
11111030,
|
|
|
|
#BRANCHSTART p,75,90
|
|
#N
|
|
00001212,
|
|
000011110,
|
|
00001210,
|
|
01011110,
|
|
1111,
|
|
1112,
|
|
1112,
|
|
11111020,
|
|
1111,
|
|
1112,
|
|
1111,
|
|
1112,
|
|
1112,
|
|
11111020,
|
|
|
|
#E
|
|
01011212,
|
|
01011212,
|
|
01011212,
|
|
000000100000000000100000500000000008000000000000,
|
|
1111,
|
|
1112,
|
|
1112,
|
|
11111020,
|
|
1111,
|
|
1112,
|
|
1111,
|
|
1112,
|
|
1112,
|
|
11111020,
|
|
|
|
#M
|
|
01011212,
|
|
01011212,
|
|
01011212,
|
|
000000100000000000100000500000000008000000000000,
|
|
1111,
|
|
10221020,
|
|
1112,
|
|
11111020,
|
|
1111,
|
|
10221020,
|
|
1112,
|
|
1010101010222020,
|
|
11111020,
|
|
11111030,
|
|
|
|
#BRANCHSTART p,75,90
|
|
#N
|
|
02,
|
|
02,
|
|
02,
|
|
0022,
|
|
02,
|
|
02,
|
|
02,
|
|
1111100011111000,
|
|
12121010,
|
|
12121010,
|
|
1111,
|
|
1120,
|
|
1,
|
|
11,
|
|
10012001,
|
|
21212001,
|
|
20012001,
|
|
21212000,
|
|
1111,
|
|
1222,
|
|
1111,
|
|
1222,
|
|
1212,
|
|
1212,
|
|
1212,
|
|
01011110,
|
|
,
|
|
0111,
|
|
,
|
|
0111,
|
|
11,
|
|
11,
|
|
10012001,
|
|
21212030,
|
|
|
|
#E
|
|
1011100000000000,
|
|
1011100000000000,
|
|
1011100000000000,
|
|
1011100020002000,
|
|
02,
|
|
02,
|
|
02,
|
|
0000000011111000,
|
|
12121010,
|
|
12121010,
|
|
1111,
|
|
1120,
|
|
1,
|
|
11,
|
|
10012001,
|
|
21212001,
|
|
20012001,
|
|
21212000,
|
|
1111,
|
|
1222,
|
|
1111,
|
|
1222,
|
|
1212,
|
|
1212,
|
|
1212,
|
|
01011110,
|
|
1011101110111011,
|
|
1111,
|
|
1011101110111011,
|
|
1111,
|
|
10221022,
|
|
10221022,
|
|
10012001,
|
|
21212030,
|
|
|
|
#M
|
|
1011100000000000,
|
|
1011100000000000,
|
|
1011100000000000,
|
|
1011100020002000,
|
|
02,
|
|
02,
|
|
02,
|
|
0000000011111000,
|
|
1011101110001000,
|
|
1011101110001000,
|
|
1011100010111000,
|
|
1011101110111000,
|
|
500000000000000000000000000000000008000000000000,
|
|
11,
|
|
10012001,
|
|
21212001,
|
|
20012001,
|
|
21212000,
|
|
1011101110111011,
|
|
1222,
|
|
1011101110111011,
|
|
1222,
|
|
1110200011102000,
|
|
1110200011102000,
|
|
1110200011102000,
|
|
01011110,
|
|
1011101110111011,
|
|
1111,
|
|
1011101110111011,
|
|
1111,
|
|
10221022,
|
|
10221022,
|
|
10012001,
|
|
21212030,
|
|
|
|
#BRANCHEND
|
|
|
|
|
|
#END
|
|
|
|
|
|
COURSE:Hard
|
|
LEVEL:5
|
|
|
|
|
|
#START
|
|
|
|
|
|
000000000000000000000000100000000000100000000000,
|
|
000000000000000000000000000000000000000000000000,
|
|
000000000000000000000000100000000000100000000000,
|
|
100000000000000000000000000000000000000000000000,
|
|
100000000000000000000000000000000000000000000000,
|
|
100000000000000000000000100000000000
|
|
#BPMCHANGE 170
|
|
000000000000,
|
|
#BPMCHANGE 165
|
|
100000000000100000000000100000000000100000000000,
|
|
#BPMCHANGE 167
|
|
000000100000000000100000100000200000100000200000,
|
|
000000100000000000100000100000200000100000200000,
|
|
000000100000000000100000100000200000100000200000,
|
|
000000100000000000100000500000000800000000000000,
|
|
000000100000000000100000100000200000100000200000,
|
|
000000100000000000100000100000200000100000200000,
|
|
000000100000000000100000100000200000100000200000,
|
|
000000100000000000100000500000000800000000000000,
|
|
100000000000100000000000100000000000100000000000,
|
|
100000000000200000200000100000000000200000000000,
|
|
100000000000100000000000100000000000200000000000,
|
|
100000100000100000100000100000000000200000000000,
|
|
100000000000100000000000100000000000100000000000,
|
|
100000000000200000200000100000000000200000000000,
|
|
100000000000100000000000100000000000200000000000,
|
|
100000100000100000100000100000200200200000200000,
|
|
100000100000100000100000100000000000200000000000,
|
|
100000100000100000100000100000000000300000000000,
|
|
000000100000000000100000100000200000100000200000,
|
|
000000100000000000100000100000200000100000200000,
|
|
000000100000000000100000100000200000100000200000,
|
|
000000100000000000100000500000000800000000000000,
|
|
100000000000100000000000100000000000100000000000,
|
|
100000000000200000200000100000000000200000000000,
|
|
100000000000100000000000100000000000200000000000,
|
|
100000100000100000100000100000000000200000000000,
|
|
100000000000100000000000100000000000100000000000,
|
|
100000000000200000200000100000000000200000000000,
|
|
100000000000100000000000100000000000200000000000,
|
|
100000100000100000100000100000200200200000200000,
|
|
100000100000100000100000100000000000200000000000,
|
|
100000100000100000100000100000000000300000000000,
|
|
100000100100100000000000200000000000000000000000,
|
|
100000100100100000000000200000000000000000000000,
|
|
100000100100100000000000200000000000000000000000,
|
|
100000100100100000000000200000000000200000000000,
|
|
100000100100100000000000200000000000000000000000,
|
|
100000100100100000000000200000000000000000000000,
|
|
100000100100100000000000200000000000000000000000,
|
|
100100100100100000000000000000000000000000000000,
|
|
100000100100100000100100100000000000100000000000,
|
|
100000100100100000100100100000000000100000000000,
|
|
100000100100100000000000100000100100100000000000,
|
|
100000100100100000100100100000000000200000000000,
|
|
500000000000000000000000000000000800000000000000,
|
|
100000000000000000000000100000000000000000000000,
|
|
100000000000000000100000200000000000000000100000,
|
|
200000100000200000100000200000000000000000100000,
|
|
200000000000000000100000200000000000000000100000,
|
|
200000100000200000100000200000000000000000000000,
|
|
100000100100100000100100100000100100100000100100,
|
|
100000000000200000000000200000000000200000000000,
|
|
100000100100100000100100100000100100100000100100,
|
|
100000000000200000000000200000000000200000000000,
|
|
100100100000200000000000100100100000200000000000,
|
|
100100100000200000000000100100100000200000000000,
|
|
100100100000200000000000100100100000200000000000,
|
|
000000100000000000100000100000100000100000000000,
|
|
100000100100100000100100100000100100100000100100,
|
|
100000000000100000000000100000000000100000000000,
|
|
100000100100100000100100100000100100100000100100,
|
|
100000000000100000000000100000000000100000000000,
|
|
100000000000200000200000100000000000200000200000,
|
|
100000000000200000200000100000000000200000200000,
|
|
100000000000000000100000200000000000000000100000,
|
|
200000100000200000100000200000000000300000000000,
|
|
|
|
|
|
#END
|
|
|
|
|
|
COURSE:Normal
|
|
LEVEL:3
|
|
SCOREINIT:710
|
|
SCOREDIFF:180
|
|
|
|
|
|
#START
|
|
|
|
|
|
000000000000000000000000100000000000100000000000,
|
|
000000000000000000000000000000000000000000000000,
|
|
000000000000000000000000100000000000100000000000,
|
|
100000000000000000000000000000000000000000000000,
|
|
100000000000000000000000000000000000000000000000,
|
|
100000000000000000000000100000000000
|
|
#BPMCHANGE 170
|
|
000000000000,
|
|
#BPMCHANGE 165
|
|
100000000000100000000000100000000000100000000000,
|
|
#BPMCHANGE 167
|
|
000000000000000000000000100000200000100000200000,
|
|
000000000000000000000000100000100000100000100000,
|
|
000000000000000000000000100000200000100000000000,
|
|
000000100000000000100000100000100000100000000000,
|
|
000000000000000000000000100000200000100000200000,
|
|
000000000000000000000000100000100000100000100000,
|
|
000000000000000000000000100000200000100000000000,
|
|
000000100000000000100000100000100000100000000000,
|
|
100000000000100000000000100000000000100000000000,
|
|
100000000000100000000000100000000000200000000000,
|
|
100000000000100000000000100000000000200000000000,
|
|
100000100000100000100000100000000000200000000000,
|
|
100000000000100000000000100000000000100000000000,
|
|
100000000000100000000000100000000000200000000000,
|
|
100000000000100000000000100000000000100000000000,
|
|
100000000000100000000000100000000000200000000000,
|
|
100000000000100000000000100000000000200000000000,
|
|
100000100000100000100000100000000000000000000000,
|
|
000000000000000000000000100000200000100000200000,
|
|
000000000000000000000000100000100000100000100000,
|
|
000000000000000000000000100000200000100000000000,
|
|
000000100000000000100000100000100000100000000000,
|
|
100000000000100000000000100000000000100000000000,
|
|
100000000000100000000000100000000000200000000000,
|
|
100000000000100000000000100000000000200000000000,
|
|
100000100000100000100000100000000000200000000000,
|
|
100000000000100000000000100000000000100000000000,
|
|
100000000000100000000000100000000000200000000000,
|
|
100000000000100000000000100000000000100000000000,
|
|
100000000000100000000000100000000000200000000000,
|
|
100000000000100000000000100000000000200000000000,
|
|
100000100000100000100000100000000000200000000000,
|
|
000000000000000000000000200000000000000000000000,
|
|
000000000000000000000000200000000000000000000000,
|
|
000000000000000000000000200000000000000000000000,
|
|
000000000000000000000000200000000000200000000000,
|
|
000000000000000000000000200000000000000000000000,
|
|
000000000000000000000000200000000000000000000000,
|
|
000000000000000000000000200000000000000000000000,
|
|
100100100100100000000000100100100100100000000000,
|
|
100000200000100000200000100000000000100000000000,
|
|
100000200000100000200000100000000000100000000000,
|
|
100000000000100000000000100000000000100000000000,
|
|
100000000000100000000000200000000000000000000000,
|
|
100000000000000000000000000000000000000000000000,
|
|
100000000000000000000000100000000000000000000000,
|
|
100000000000000000100000200000000000000000100000,
|
|
200000100000200000100000200000000000000000100000,
|
|
200000000000000000100000200000000000000000100000,
|
|
200000100000200000100000200000000000000000000000,
|
|
100000000000100000000000100000000000100000000000,
|
|
100000000000200000000000200000000000200000000000,
|
|
100000000000100000000000100000000000100000000000,
|
|
100000000000200000000000200000000000200000000000,
|
|
100000000000200000000000100000000000200000000000,
|
|
100000000000200000000000100000000000200000000000,
|
|
100000000000200000000000100000000000200000000000,
|
|
000000100000000000100000100000100000100000000000,
|
|
000000000000000000000000000000000000000000000000,
|
|
000000000000100000000000100000000000100000000000,
|
|
000000000000000000000000000000000000000000000000,
|
|
000000000000100000000000100000000000100000000000,
|
|
100000000000000000000000100000000000000000000000,
|
|
100000000000000000000000100000000000000000000000,
|
|
100000000000000000100000200000000000000000100000,
|
|
200000100000200000100000200000000000300000000000,
|
|
|
|
|
|
#END
|
|
|