Files
2023-01-17 00:45:18 -05:00

443 lines
10 KiB
Plaintext

//TJADB Project
TITLE:Chou Tokkyuu
TITLEJA:超特急
SUBTITLE:--Yuzu/Ainori
SUBTITLEJA:TVバラエティ番組「あいのり」より
BPM:92.82
WAVE:Chou Tokkyuu.ogg
OFFSET:-2.636
DEMOSTART:66.072
COURSE:Oni
LEVEL:6
BALLOON:12
SCOREINIT:770
SCOREDIFF:160
#START
#SCROLL 1.59970911441
100000000000100000000000100000000000100000100000,
#BPMCHANGE 94.28
#SCROLL 1.57493635978
100000000000100000000000100000000000100000100000,
#BPMCHANGE 95.59
#SCROLL 1.55335286118
100000000000200000000000100000000000200000000000,
#BPMCHANGE 96.12
#SCROLL 1.54478776529
300000000000000000000000000000200000200020200000,
#BPMCHANGE 98.98
#SCROLL 1.50015154577
100000000000100000000000100000000000101010101010,
100000200000100020000020000010100000100000200000,
#BPMCHANGE 98.99
#SCROLL 1.5
100000200000100020000020000010100000100000200000,
100010100000100010200000100010100000100010200000,
100000200000100020000020000010100000100000000000,
100000200000100020000020000010100000100000200000,
100000200000100020000020000010100000100000200000,
100010100000100010200000100010100000100010200000,
100000200000100020000020000010100000100000000000,
100000200000000000200020100000200000000000200020,
100000200000000000200000100000200000200010200020,
100000200000000000200020100000200000000000200020,
#MEASURE 2/4
100000200000000000200000,
#MEASURE 4/4
100010100000100010100000100000200000100010200020,
100000100000100000200010100010200010100010200000,
100000200000000000200020100000200000000000200020,
100000200000000000200020100000200000200010200020,
100000200000000000200020100000200000000000200020,
#MEASURE 2/4
100000200000000000200000,
#MEASURE 4/4
100010100000100010100000100000200000100010200020,
100000100000100000200010100010200010100010200000,
300000000300000000300000000020200000200010100000,
300000000300000000300000202020202020200000200000,
#GOGOSTART
101010100000100000100000101010100000100000100000,
101010100000100000200000101010100000100000200000,
100000200000100010200000100000200000100010200000,
100000100000100010100020000010200000100000100000,
#GOGOEND
101010100000101010100000101010100000100000100000,
101010200000101010200000101010200000100000200000,
100000200000100000100020000020000100000020200000,
700000000000000000000000000000000000800000000000,
#GOGOSTART
101010200000100000200000101010200000100000200000,
101020200000100000200000101020200000100000200000,
100000200000100010200000100000200000100010200000,
100000100000100010100020000010200000100000100000,
#GOGOEND
101010200000101010200000101010200000100000100000,
101020200000101020200000101020200000100000200000,
100000100000100010200000100000200010000020200000,
101010200020101010200000101010200020101010200000,
300000000000000000000000000000000000000000000000,
#END
COURSE:Hard
LEVEL:4
BALLOON:10
SCOREINIT:800
SCOREDIFF:200
#START
#SCROLL 1.59970911441
100000000000100000000000100000000000000000000000,
#BPMCHANGE 94.28
#SCROLL 1.57493635978
100000000000100000000000100000000000000000000000,
#BPMCHANGE 95.59
#SCROLL 1.55335286118
100000000000200000000000100000000000200000000000,
#BPMCHANGE 96.12
#SCROLL 1.54478776529
500000000000000000000000000080000000000000000000,
#BPMCHANGE 98.98
#SCROLL 1.50015154577
100000000000100000000000100000000000300000000000,
100000200000100010000020000000100000100000000000,
#BPMCHANGE 98.99
#SCROLL 1.5
100000200000100010000020000000100000100000200000,
100000200000100000200000100000200000100000200000,
100000100000100010000010000000200000000000000000,
100000200000100010000020000000100000100000000000,
100000200000100010000020000000100000100000200000,
100000200000100000200000100000200000100000200000,
100000100000100010000010000000400000000000000000,
100000200000000000200000100000200000000000200000,
100000200000000000200000100000200000000030000000,
100000200000000000200000100000200000000000200000,
#MEASURE 2/4
100000200000000000200000,
#MEASURE 4/4
100000100000200000200000000000200000000000200000,
100000100000100000200010000010100000100000000000,
100000200000000000200000100000200000000000200000,
100000200000000000200000100000200000000030000000,
100000200000000000200000100000200000000000200000,
#MEASURE 2/4
100000200000000000200000,
#MEASURE 4/4
100000100000200000200000000000200000000000200000,
100000100000100000200010000010100000100000000000,
300000000300000000300000000000200000200000000000,
300000000300000000300000000000300000400000000000,
#GOGOSTART
100000100000100010100000100000000000200000200000,
100000100000100010100000100000000000200000200000,
100000200000100010100000100000200000100010100000,
500000000000000000000000000080000000000000000000,
#GOGOEND
100000100000200000200000100000200000000000200000,
100000100000200000200000100000200000000000200000,
100000000000100000100020000020000100000000000000,
700000000000000000000000000000000000000080000000,
#GOGOSTART
100000100000100010100000100000000000200000200000,
100000100000100010100000100000000000200000200000,
100000200000100010100000100000200000100010100000,
500000000000000000000000000080000000000000000000,
#GOGOEND
100000100000200000200000100000200000000000200000,
100000100000200000200000100000200000000000200000,
100000000000100000100000200000200010000020000000,
100000200000100010200000100000200000100010200000,
300000000000000000000000000000000000000000000000,
#END
COURSE:Normal
LEVEL:3
BALLOON:7,7,7
SCOREINIT:990
SCOREDIFF:350
#START
#SCROLL 1.59970911441
1110,
#BPMCHANGE 94.28
#SCROLL 1.57493635978
1110,
#BPMCHANGE 95.59
#SCROLL 1.55335286118
1212,
#BPMCHANGE 96.12
#SCROLL 1.54478776529
500000000000000000000000000008000000000000000000,
#BPMCHANGE 98.98
#SCROLL 1.50015154577
1122,
#SECTION
#BRANCHSTART p,75,90
#N
1010100100000000,
#BPMCHANGE 98.99
#SCROLL 1.5
1010100100000000,
1111,
1000000200000000,
1010100100000000,
1010100100000000,
1111,
1000000300000000,
1011,
11000000,
1011,
#MEASURE 2/4
1100,
#MEASURE 4/4
10100001,
1,
1022,
11000000,
1022,
#MEASURE 2/4
1100,
#MEASURE 4/4
10100001,
1,
500000000000000000000000000008000000000000000000,
600000000000000000000000000008000000000000000000,
#GOGOSTART
3330,
3330,
1111,
500000000000000000000000000008000000000000000000,
#GOGOEND
1011,
1011,
1,
70000800,
#GOGOSTART
3330,
3330,
1111,
500000000000000000000008000000000000000000000000,
#GOGOEND
1011,
1011,
500000000000000000000008000000000000000000000000,
1122,
3,
#E
1010100100000000,
#BPMCHANGE 98.99
#SCROLL 1.5
1010100100000000,
1111,
1000000200000000,
1010100200000000,
1010100200000000,
1111,
1000000300000000,
11001010,
11000000,
11001010,
#MEASURE 2/4
1100,
#MEASURE 4/4
10110001,
1,
11002020,
11000000,
11002020,
#MEASURE 2/4
1100,
#MEASURE 4/4
10110001,
1,
500000000000000000000000000008000000000000000000,
600000000000000000000000000008000000000000000000,
#GOGOSTART
30303011,
10101011,
1111,
500000000000000000000000000008000000000000000000,
#GOGOEND
1012,
1012,
1,
70000800,
#GOGOSTART
30303011,
10101011,
1111,
500000000000000000000008000000000000000000000000,
#GOGOEND
1011,
1022,
500000000000000000000008000000000000000000000000,
1122,
3,
#M
1010100100000000,
#BPMCHANGE 98.99
#SCROLL 1.5
1010100100000000,
1212,
1000000200000000,
1010100200000000,
1010100200000000,
1212,
1000000300000000,
11001020,
11000000,
11001020,
#MEASURE 2/4
1100,
#MEASURE 4/4
10110001,
1,
11001020,
11000000,
11001020,
#MEASURE 2/4
1100,
#MEASURE 4/4
10110001,
1,
500000000000000000000000000008000000000000000000,
600000000000000000000000000008000000000000000000,
#GOGOSTART
30303011,
10102011,
1112,
500000000000000000000000000008000000000000000000,
#GOGOEND
10201011,
1212,
1,
70000800,
#GOGOSTART
30303011,
10102011,
1112,
500000000000000000000008000000000000000000000000,
#GOGOEND
10101011,
1212,
500000000000000000000008000000000000000000000000,
11102220,
3,
#BRANCHEND
#END
COURSE:Easy
LEVEL:3
BALLOON:4,8
SCOREINIT:1080
SCOREDIFF:400
#START
#SCROLL 1.59970911441
100000000000000000000000000000000000000000000000,
#BPMCHANGE 94.28
#SCROLL 1.57493635978
100000000000000000000000000000000000000000000000,
#BPMCHANGE 95.59
#SCROLL 1.55335286118
100000000000000000000000100000000000000000000000,
#BPMCHANGE 96.12
#SCROLL 1.54478776529
100000000000000000000000000000000000000000000000,
#BPMCHANGE 98.98
#SCROLL 1.50015154577
500000000000000000000000800000000000000000000000,
100000000000100000000000100000000000000000000000,
#BPMCHANGE 98.99
#SCROLL 1.5
100000000000100000000000100000000000000000000000,
100000000000100000000000100000000000100000000000,
100000000000000000000000200000000000000000000000,
100000000000100000000000100000000000000000000000,
100000000000100000000000100000000000000000000000,
100000000000100000000000100000000000100000000000,
500000000000000000000000800000000000000000000000,
100000000000000000000000100000000000100000000000,
100000000000000000000000000000000000000000000000,
100000000000000000000000100000000000100000000000,
#MEASURE 2/4
100000000000000000000000,
#MEASURE 4/4
200000000000200000000000000000000000000000100000,
100000000000000000000000000000000000000000000000,
100000000000000000000000100000000000100000000000,
100000000000000000000000000000000000000000000000,
100000000000000000000000100000000000100000000000,
#MEASURE 2/4
100000000000000000000000,
#MEASURE 4/4
200000000000200000000000000000000000000000100000,
100000000000000000000000000000000000000000000000,
500000000000000000000000800000000000000000000000,
600000000000000000000000800000000000000000000000,
#GOGOSTART
300000000000300000000000300000000000000000000000,
300000000000300000000000300000000000000000000000,
100000000000100000000000100000000000100000000000,
500000000000000000800000000000000000000000000000,
#GOGOEND
100000000000000000000000100000000000000000000000,
100000000000100000000000200000000000200000000000,
100000000000000000000000000000000000000000000000,
700000000000000000800000000000000000000000000000,
#GOGOSTART
300000000000300000000000300000000000000000000000,
300000000000300000000000300000000000000000000000,
100000000000100000000000100000000000100000000000,
500000000000000000800000000000000000000000000000,
#GOGOEND
100000000000000000000000100000000000000000000000,
100000000000100000000000200000000000200000000000,
100000000000000000000000000000000000000000000000,
900000000000000000000000000000000000000000000008,
#END