Files
2023-01-17 00:45:18 -05:00

470 lines
20 KiB
Plaintext

//TJADB Project
TITLE:Connected World
TITLEJA:Connected World
SUBTITLE:--somunia
SUBTITLEJA:somunia
BPM:160
WAVE:Connected World.ogg
OFFSET:-0.003
DEMOSTART:36.002
COURSE:Oni
LEVEL:8
BALLOON:12,9,12,9
SCOREINIT:1360
SCOREDIFF:0
#START
100000200000100000200000100000000100000000100000,
100000200000200000100000200000000200000000200000,
100000200000100000200000100000000100000000100000,
100000200000200000100000200000000200000000200000,
100000200000100000200000100000000100000000100000,
100000200000200000100000200000000200000000200000,
100000200000100000200000100000000200000000200000,
000000000000400000000000200000200000200000200000,
100000000000200000000000200000200200100000200000,
100000000000200000000000100000200000200000200000,
100000200000200000000000100000200000200000200000,
100000000000200000200200100000200000200000200000,
100000000000200000000000200000200200100000200000,
100000000000200000000000100000200000200000100000,
100000200200200000000000100000200200200000200000,
100100100000200000100100100000100000200000100000,
500000000000000000000000000000000000000000000000,
000000000000000000000000000000000000000008000000,
700000000000000000000000000000000000800000000000,
700000000000000000000000800000000000100000000000,
100000000200100000200000100000200200100000200000,
100000000200100000200000100000200200100000200000,
100100100000100100100000100100100000100100100000,
200000200000200200200000202020200200000000000000,
#GOGOSTART
300000200200200000100000200000000000200200200000,
100000200000100000200200200000200000300000000000,
100000200200200000100000200000000000100100200000,
100000200000100000000000200200200000200200200200,
100000200200200000100000200000000000200200200000,
100000200000100000200200200000200000300000000000,
100100100000200000000000100000200200100000200000,
100100100000200000000000300000300000400000400000,
300000200200200000100000200000000000200200200000,
100000200000100000200200200000200000300000000000,
100000200200200000100000200000000000100100200000,
200000200000100000000000200200200000200200200200,
100000200200200000100000200000000000200200200000,
100000200000100000200200200000200000300000000000,
100000000000200200200000200000200000100000200000,
100000100100200000000000300000300000400000400000,
#GOGOEND
100000200000100000200000100000000100000000100000,
100000200000200000100000200000000200000000200000,
100000200000100000200000100000000100000000100000,
100000200000200000100000200000000200000000200000,
100000200000100000200000100000000100000000100000,
100000200000200000100000200000000200000000200000,
100000200000100000200000300000000300000000300000,
100000000000400000000000200000200000200000200000,
100000200000100000200200100000000100000000100000,
100200200000200000100000200000100200000100200000,
100000200000100000200200100000000100000000100000,
100000200200200000100000200000000200000000200000,
100000200000100000200200100000000100000000100000,
100200200000200000100000200000100200000100200000,
100000200000100000200200100000000100000000100000,
100000000000400000000000200000200000200000200000,
100000000000200000000000200000200200100000200000,
100000000000200000000000100000200000200000200000,
100000200000200000000000100000200000200000200000,
100000000000200000200000100000200200200000200000,
100000000000200000000000200000200200100000200000,
100000000000200000000000100000200000200000100000,
100000200200200000000000100000200200200000200000,
100100100000200000100100100000100000200000100000,
500000000000000000000000000000000000000000000000,
000000000000000000000000000000000000000008000000,
700000000000000000000000000000000000800000000000,
700000000000000000000000800000000000100000000000,
100000000200100000200000100000200200100000200000,
100000000200100000200000100000200200100000200000,
100100200200100100200200100100100100200200200200,
100000100000200200200000202020200200000000000000,
#GOGOSTART
300000200200100000200000100100100000200000100000,
100000200000100100200000200000100000300000000000,
100000200200100000200000100100100000200000100000,
000000200000100000200000100100200000200200200200,
100000200200100000200000100100100000200000100000,
100000200000100100200000200000200000300000000000,
100000200200100000200000100100100000200000100000,
100000200000100100200000300000300000400000400000,
300000200200100000200000100100100000200000100000,
100000200000100100200000200000100000300000000000,
100000200200100000200000100100100000200000100000,
000000200000100000200000100100200000200200200200,
100000200200100000200000100100100000200000100000,
100000200000100100200000200000200000300000000000,
100000200200100000200000100100100000200000100000,
100000200000100100200000300000300000400000400000,
#GOGOEND
100000200000200000200000000000200000100000200000,
000000200000200000100000100000100000200000100000,
100000200000200000200000000000200000100000200000,
000000100000200000200000100000200000100000100000,
100000200000200000200000000000200000100000200000,
000000200000200000100000100000100000200000100000,
000000100000200000100200100000100000200000200000,
100200200000100000200000300000300000400000400000,
#END
COURSE:Hard
LEVEL:5
BALLOON:10,7,10,10,10,7,12,12,30
SCOREINIT:2220
SCOREDIFF:0
#START
100000000000100000000000100000000000000000000000,
100000000000100000000000200000000200000000200000,
100000000000100000000000100000000000000000000000,
200000000000200000000000200000000200000000200000,
100000000000100000000000100000000000000000000000,
100000000000100000000000200000000200000000200000,
100000000000100000000000100000000200000000200000,
000000000000400000000000200000200000200000200000,
100000000000200000000000200000000000000000000000,
100000000000200000000000100000000000000000000000,
100000200000200000000000100000200000200000000000,
100000000000200000200000100000200000200000000000,
100000000000200000000000200000000000000000000000,
100000000000200000000000100000000000000000000000,
100000200000200000000000100000200000200000000000,
100000000000200000200000100000000000200000200000,
500000000000000000000000000000000000000000000000,
000000000000000000000000000000000000000080000000,
700000000000000000000000000000000800000000000000,
700000000000000000000800000000000000100000000000,
100000000100100000200000100000200000100000200000,
100000000100100000200000100000200000100000200000,
600000000000000000000000000000000000000000000000,
000000000000000000000080000000000000000000000000,
#GOGOSTART
300000000000200000100000200000000000200000200000,
100000200000100000000000200000200000200000000000,
100000000000200000100000200000000000100000100000,
200000200000100000000000200000200000200200200000,
100000000000200000100000200000000000200000200000,
100000200000100000000000200000100000300000000000,
100000000000200000100000200000200000100000000000,
700000000000000000000000000000000800000000000000,
300000000000200000100000200000000000200000200000,
100000200000100000000000200000200000200000000000,
100000000000200000100000200000000000100000100000,
200000200000100000000000200000200000200200200000,
100000000000200000100000200000000000200000200000,
100000200000100000000000200000100000300000000000,
100000000000200000100000200000200000100000000000,
700000000000000000000000000000000800000000000000,
#GOGOEND
100000000000100000000000100000000100000000100000,
100000100000100000000000200000000200000000200000,
100000000000100000000000100000000100000000100000,
200000000000200000000000200000000200000000200000,
100000000000100000000000100000000100000000100000,
100000100000100000000000200000000200000000200000,
100000000000100000000000300000000300000000300000,
100000000000400000000000200000200000200000200000,
100000000000100000200000100000000100000000100000,
100000100000100000000000200000000200000000200000,
100000000000100000200000100000000100000000100000,
200000000000200000200000200000000200000000200000,
100000000000100000200000100000000100000000100000,
100000100000100000000000200000000200000000200000,
100000000000100000200000100000000100000000100000,
100000000000400000000000200000200000200000200000,
100000000000200000000000200000000000000000000000,
100000000000200000000000100000000000000000000000,
100000200000200000000000100000200000200000000000,
100000000000200000200000100000200000200000000000,
100000000000200000000000200000000000000000000000,
100000000000200000000000100000000000000000000000,
100000200000200000000000100000200000200000000000,
100000000000200000200000100000000000200000200000,
500000000000000000000000000000000000000000000000,
000000000000000000000000000000000000000080000000,
700000000000000000000000000000000800000000000000,
700000000000000000000800000000000000100000000000,
100000000200100000200000100000200000100000100000,
100000000200100000200000100000200000100000100000,
600000000000000000000000000000000000000000000000,
000000000000000000000080000000000000000000000000,
#GOGOSTART
300000000000100000200000200000000000100000200000,
100000200000100000000000200000200000200000000000,
100000000000100000200000200000000000100000100000,
200000200000100000000000200000200000200200200000,
100000000000100000200000200000000000100000200000,
100000200000100000000000200000100000100000000000,
100000000000100000200000200000200000100000700000,
100200000000000000000000000000000800000000000000,
300000000000100000200000200000000000100000200000,
100000200000100000000000200000200000200000000000,
100000000000100000200000200000000000100000100000,
200000200000100000000000200000200000200200200000,
100000000000100000200000200000000000100000200000,
100000200000100000000000200000100000100000000000,
100000000000100000100000200000200000100000700000,
100200000000000000000000000000000800000000000000,
#GOGOEND
100000000000200000200000000000200000100000200000,
000000200000200000100000100000000000200000000000,
100000000000200000200000000000200000100000200000,
000000100000200000200000100000200000100000000000,
100000000000200000200000000000200000100000200000,
000000200000200000100000100000000000200000000000,
700000000000000000000000000000000000000000000000,
000000000000000000000000000000000000000000800000,
#END
COURSE:Normal
LEVEL:5
BALLOON:10,7,10,10,10,7,12,12,30
SCOREINIT:2220
SCOREDIFF:0
#START
100000000000100000000000100000000000000000000000,
100000000000100000000000200000000200000000200000,
100000000000100000000000100000000000000000000000,
200000000000200000000000200000000200000000200000,
100000000000100000000000100000000000000000000000,
100000000000100000000000200000000200000000200000,
100000000000100000000000100000000200000000200000,
000000000000400000000000200000200000200000200000,
100000000000200000000000200000000000000000000000,
100000000000200000000000100000000000000000000000,
100000200000200000000000100000200000200000000000,
100000000000200000200000100000200000200000000000,
100000000000200000000000200000000000000000000000,
100000000000200000000000100000000000000000000000,
100000200000200000000000100000200000200000000000,
100000000000200000200000100000000000200000200000,
500000000000000000000000000000000000000000000000,
000000000000000000000000000000000000000080000000,
700000000000000000000000000000000800000000000000,
700000000000000000000800000000000000100000000000,
100000000100100000200000100000200000100000200000,
100000000100100000200000100000200000100000200000,
600000000000000000000000000000000000000000000000,
000000000000000000000080000000000000000000000000,
#GOGOSTART
300000000000200000100000200000000000200000200000,
100000200000100000000000200000200000200000000000,
100000000000200000100000200000000000100000100000,
200000200000100000000000200000200000200200200000,
100000000000200000100000200000000000200000200000,
100000200000100000000000200000100000300000000000,
100000000000200000100000200000200000100000000000,
700000000000000000000000000000000800000000000000,
300000000000200000100000200000000000200000200000,
100000200000100000000000200000200000200000000000,
100000000000200000100000200000000000100000100000,
200000200000100000000000200000200000200200200000,
100000000000200000100000200000000000200000200000,
100000200000100000000000200000100000300000000000,
100000000000200000100000200000200000100000000000,
700000000000000000000000000000000800000000000000,
#GOGOEND
100000000000100000000000100000000100000000100000,
100000100000100000000000200000000200000000200000,
100000000000100000000000100000000100000000100000,
200000000000200000000000200000000200000000200000,
100000000000100000000000100000000100000000100000,
100000100000100000000000200000000200000000200000,
100000000000100000000000300000000300000000300000,
100000000000400000000000200000200000200000200000,
100000000000100000200000100000000100000000100000,
100000100000100000000000200000000200000000200000,
100000000000100000200000100000000100000000100000,
200000000000200000200000200000000200000000200000,
100000000000100000200000100000000100000000100000,
100000100000100000000000200000000200000000200000,
100000000000100000200000100000000100000000100000,
100000000000400000000000200000200000200000200000,
100000000000200000000000200000000000000000000000,
100000000000200000000000100000000000000000000000,
100000200000200000000000100000200000200000000000,
100000000000200000200000100000200000200000000000,
100000000000200000000000200000000000000000000000,
100000000000200000000000100000000000000000000000,
100000200000200000000000100000200000200000000000,
100000000000200000200000100000000000200000200000,
500000000000000000000000000000000000000000000000,
000000000000000000000000000000000000000080000000,
700000000000000000000000000000000800000000000000,
700000000000000000000800000000000000100000000000,
100000000200100000200000100000200000100000100000,
100000000200100000200000100000200000100000100000,
600000000000000000000000000000000000000000000000,
000000000000000000000080000000000000000000000000,
#GOGOSTART
300000000000100000200000200000000000100000200000,
100000200000100000000000200000200000200000000000,
100000000000100000200000200000000000100000100000,
200000200000100000000000200000200000200200200000,
100000000000100000200000200000000000100000200000,
100000200000100000000000200000100000100000000000,
100000000000100000200000200000200000100000700000,
100200000000000000000000000000000800000000000000,
300000000000100000200000200000000000100000200000,
100000200000100000000000200000200000200000000000,
100000000000100000200000200000000000100000100000,
200000200000100000000000200000200000200200200000,
100000000000100000200000200000000000100000200000,
100000200000100000000000200000100000100000000000,
100000000000100000100000200000200000100000700000,
100200000000000000000000000000000800000000000000,
#GOGOEND
100000000000200000200000000000200000100000200000,
000000200000200000100000100000000000200000000000,
100000000000200000200000000000200000100000200000,
000000100000200000200000100000200000100000000000,
100000000000200000200000000000200000100000200000,
000000200000200000100000100000000000200000000000,
700000000000000000000000000000000000000000000000,
000000000000000000000000000000000000000000800000,
#END
COURSE:Easy
LEVEL:4
BALLOON:4,4,4,4,4,4,5,5,16
SCOREINIT:5080
SCOREDIFF:0
#START
100000000000000000000000000000000000000000000000,
100000000000000000000000100000000000000000000000,
100000000000000000000000000000000000000000000000,
200000000000000000000000200000000000000000000000,
100000000000000000000000000000000000000000000000,
100000000000000000000000100000000000000000000000,
100000000000000000000000200000000000000000000000,
000000000000400000000000200000000000200000000000,
000000000000200000000000200000000000000000000000,
200000000000200000000000200000000000000000000000,
000000000000200000000000000000000000200000000000,
200000000000200000000000100000000000000000000000,
000000000000200000000000200000000000000000000000,
200000000000200000000000200000000000000000000000,
000000000000200000000000000000000000200000000000,
200000000000200000000000100000000000000000000000,
500000000000000000000000000000000000000000000000,
000000000000000000000000000080000000000000000000,
700000000000000000000000000000800000000000000000,
700000000000000000800000000000000000000000000000,
100000000000100000000000100000000000000000000000,
100000000000100000000000100000000000100000000000,
600000000000000000000000000000000000000000000000,
000000000000000000000080000000000000000000000000,
#GOGOSTART
300000000000000000000000200000000000000000000000,
100000000000100000000000200000000000000000000000,
100000000000000000000000200000000000100000000000,
000000000000100000000000200000000000000000000000,
100000000000000000000000200000000000000000000000,
100000000000100000000000200000000000000000000000,
100000000000000000000000200000000000000000000000,
700000000000000000000000000000800000000000000000,
300000000000000000000000200000000000000000000000,
100000000000100000000000200000000000000000000000,
100000000000000000000000200000000000100000000000,
000000000000100000000000200000000000000000000000,
100000000000000000000000200000000000000000000000,
100000000000100000000000200000000000000000000000,
100000000000000000000000200000000000100000000000,
700000000000000000000000000000800000000000000000,
#GOGOEND
100000000000000000000000100000000000000000000000,
100000000000100000000000100000000000000000000000,
100000000000000000000000100000000000000000000000,
200000000000200000000000200000000000000000000000,
100000000000000000000000100000000000000000000000,
100000000000100000000000100000000000000000000000,
100000000000000000000000100000000000000000000000,
000000000000400000000000200000000000200000000000,
100000000000000000000000100000000000000000000000,
100000000000100000000000200000000000000000000000,
100000000000000000000000100000000000000000000000,
200000000000200000000000200000000000000000000000,
100000000000000000000000100000000000000000000000,
100000000000100000000000200000000000000000000000,
100000000000000000000000100000000000000000000000,
000000000000400000000000200000000000200000000000,
000000000000200000000000200000000000000000000000,
200000000000200000000000200000000000000000000000,
000000000000200000000000000000000000200000000000,
200000000000200000000000100000000000000000000000,
000000000000200000000000200000000000000000000000,
200000000000200000000000200000000000000000000000,
000000000000200000000000000000000000200000000000,
200000000000200000000000100000000000000000000000,
500000000000000000000000000000000000000000000000,
000000000000000000000000000080000000000000000000,
700000000000000000000000000000800000000000000000,
700000000000000000800000000000000000000000000000,
100000000000100000000000100000000000000000000000,
100000000000100000000000100000000000100000000000,
600000000000000000000000000000000000000000000000,
000000000000000000000080000000000000000000000000,
#GOGOSTART
300000000000000000000000200000000000200000000000,
100000000000100000000000200000000000000000000000,
100000000000000000000000200000000000100000000000,
000000000000100000000000200000000000000000000000,
100000000000000000000000200000000000200000000000,
100000000000100000000000200000000000000000000000,
100000000000000000000000200000000000100000700000,
000000000000000000000000000000800000000000000000,
300000000000000000000000200000000000200000000000,
100000000000100000000000200000000000000000000000,
100000000000000000000000200000000000100000000000,
000000000000100000000000200000000000000000000000,
100000000000000000000000200000000000200000000000,
100000000000100000000000200000000000000000000000,
100000000000000000000000200000000000100000700000,
000000000000000000000000000000800000000000000000,
#GOGOEND
100000000000000000200000000000000000000000000000,
000000200000000000000000200000000000000000000000,
100000000000000000200000000000000000000000000000,
000000200000000000000000200000000000000000000000,
100000000000000000200000000000000000000000000000,
000000200000000000000000200000000000000000000000,
700000000000000000000000000000000000000000000000,
000000000000000000000000000000000000000000800000,
#END