Files
ESE-ja-fix/01 Pop/CoroCoro Comic 40th Anniversary Song/CoroCoro Comic 40th Anniversary Song.tja
2023-01-17 00:45:18 -05:00

345 lines
14 KiB
Plaintext

//TJADB Project
TITLE:CoroCoro Comic 40th Anniversary Song
TITLEJA:コロコロコミック40周年のうた
SUBTITLE:--Taiiku Okazaki
SUBTITLEJA:岡崎体育
BPM:220
WAVE:CoroCoro Comic 40th Anniversary Song.ogg
OFFSET:-1.725
DEMOSTART:45.335
COURSE:Oni
LEVEL:7
BALLOON:4,8,20
SCOREINIT:850
SCOREDIFF:248
#START
#GOGOSTART
100000000000200000100000200000100000000000100000,
000000100000000000100000200000000000200000000000,
100000000000200000100000200000100000000000100000,
000000100000200000100000200000100000200000200000,
100000000000200000100000200000100000000000100000,
000000100000000000100000200000000000200000000000,
300000000000000000400000300000000000000000400000,
000000400000000000400000300000000000400000000000,
#GOGOEND
100000000000200000000000100000100000200000100000,
100000000000200000000000500000000008000000000000,
100000100100100000000000200000200200200000000000,
100000100000000000700000000000000000800000000000,
100000100000100000100000200000200000200000200000,
100000100000200000200000500000000008000000000000,
100000000000400000000000100000000000400000000000,
100000000000100000100000200000000000000000000000,
100000100000200000200000100000000000200000000000,
100000000000200000000000100000100000200000200000,
100000000000200000200000100000100000200000200000,
100000200000100000200000100000200000100000200000,
100000100000100000100000200000200000200000200000,
100000100000200000200000100000000000200000000000,
100000000000100000100000100000100000100000000000,
100000000000300000400000600000000000000008000000,
100000000000100000200000100000000000200000000000,
100000000000200000100000200000000000200000000000,
100000000000100000200000100000000000200000000000,
100000000000200000100000200000000000000000000000,
100000000000100000200000100000000000200000000000,
100000000000200000100000200000000000200000000000,
100000000000100000200000100000000000200000000000,
100000000000200000100000200000000000000000000000,
300000000000000000000000000000000000000000000000,
200000000000000000000000000000000000000000000000,
200000000000000000000000200000000000000000000000,
200000000000000000000000200000000000000000000000,
100000000000000000000000100000000000000000000000,
100000000000000000000000100000000000000000000000,
100000000000100000000000100000000000100000000000,
100000100000100000100000400000000000000000000000,
#GOGOSTART
100000200000100000200000100000200000100000200000,
100000100000200000200000100000100000200000200000,
100000100000100000100000200000200000200000200000,
000000000000400000000000400000000000000000000000,
100000000000200000100000100000000000200000000000,
100000000000200000100000100000100000200000000000,
100000000000200000100000100000000000200000000000,
700000000000000000000000000000000000800000000000,
100000200000100000200000100000200000100000200000,
100000100000200000200000100000100000200000200000,
100000100000100000100000200000200000200000200000,
000000000000400000000000400000000000000000000000,
300000000000300000000000400000000000400000000000,
300000000000300000000000400000000000400000000000,
300000300000400000000000300000300000400000000000,
300000300000300000300000300000000000400000000000,
300000000000200000100000200000100000000000100000,
000000100000000000100000200000000000200000000000,
100000000000200000100000200000100000000000100000,
000000100000200000100000200000100000200000000000,
300000000000000000400000300000000000000000400000,
000000400000000000400000300000000000400000000000,
700000000000000000000000000000000000000000000000,
000000000000000000000000000000000000000000000008,
#GOGOEND
#END
COURSE:Hard
LEVEL:6
BALLOON:3,4,3,6,5,20
SCOREINIT:880
SCOREDIFF:263
#START
#GOGOSTART
100000000000100000000000100000000000000000200000,
000000200000000000200000200000000000200000000000,
100000000000100000000000100000000000000000200000,
000000200000000000200000200000000000200000000000,
100000000000100000000000100000000000000000200000,
000000200000000000200000200000000000200000000000,
300000000000000000300000300000000000000000400000,
000000400000000000400000400000000000300000000000,
#GOGOEND
100000000000100000000000100000100000100000000000,
100000000000100000000000500000800000000000000000,
300000100000100000000000400000200000200000000000,
100000100000000000700000000000000800000000000000,
100000100000100000000000100000100000100000000000,
100000100000100000100000500000800000000000000000,
100000000000400000000000100000000000400000000000,
100000000000100000100000100000000000000000000000,
100000000000100000000000200000000000200000000000,
100000000000100000000000200000000000200000000000,
100000000000100000000000200000000000200000000000,
100000100000100000000000100000100000100000000000,
200000200000200000000000200000200000200000000000,
100000200000100000200000100000000000200000000000,
100000000000100000100000100000100000100000000000,
100000000000700000000000000000800000000000000000,
100000000000100000000000200000000000200000000000,
100000000000100000000000100000000000000000000000,
100000000000100000000000200000000000200000000000,
100000000000000000000000200000000000000000000000,
100000000000100000000000200000000000200000000000,
100000000000100000000000100000000000000000000000,
100000000000100000000000200000000000200000000000,
100000000000000000200000200000000000000000000000,
300000000000000000000000000000000000000000000000,
200000000000000000000000000000000000000000000000,
200000000000000000000000000000000000000000000000,
200000000000000000000000000000000000000000000000,
100000000000000000000000100000000000000000000000,
100000000000000000000000100000000000000000000000,
100000000000100000000000100000000000100000000000,
700000000000000800000000300000000000000000000000,
#GOGOSTART
100000100000100000100000100000000000100000000000,
100000100000100000100000100000000000100000000000,
200000200000200000000000200000200000200000000000,
000000000000400000000000400000000000000000000000,
100000000000100000000000200000000000200000000000,
100000000000100000000000200000000000200000000000,
100000000000100000000000200000000000200000000000,
700000000000000000000000000000800000000000000000,
100000100000100000100000100000000000100000000000,
100000100000100000100000100000000000100000000000,
200000200000200000000000200000200000200000000000,
000000000000400000000000400000000000000000000000,
300000000000300000000000300000000000300000000000,
400000000000400000000000400000000000400000000000,
300000000000300000000000400000000000400000000000,
300000300000300000300000300000000000300000000000,
700000000000000000800000000000000000000000000000,
000000000000000000000000200000000000200000000000,
100000000000100000000000100000000000000000200000,
000000200000000000200000200000000000200000000000,
300000000000000000300000300000000000000000400000,
000000400000000000400000400000000000300000000000,
900000000000000000000000000000000000000000000000,
000000000000000000000000000000000000000000800000,
#GOGOEND
#END
COURSE:Normal
LEVEL:4
BALLOON:10,4,8,12
SCOREINIT:1120
SCOREDIFF:483
#START
#GOGOSTART
100000000000000000000000100000000000000000000000,
000000000000000000000000100000000000100000000000,
100000000000000000000000100000000000000000000000,
000000000000000000000000100000000000100000000000,
100000000000000000000000100000000000000000000000,
000000000000000000000000100000000000100000000000,
700000000000000000000000000000000000000000000000,
000000000000000000800000000000000000000000000000,
#GOGOEND
100000000000000000000000100000000000000000000000,
500000000000000000000000800000000000000000000000,
300000000000000000000000300000000000000000000000,
400000000000000000000000000000000000000000000000,
200000000000000000000000200000000000000000000000,
200000000000200000000000400000000000000000000000,
300000000000000000000000400000000000000000000000,
100000000000100000000000100000000000000000000000,
100000000000000000000000200000000000000000000000,
100000000000000000000000200000000000000000000000,
100000000000000000000000200000000000000000000000,
100000000000100000000000100000000000000000000000,
100000000000100000000000100000000000000000000000,
100000000000100000000000100000000000100000000000,
300000000000700000000000000000000000000000800000,
000000000000400000000000400000000000000000000000,
100000000000000000000000100000000000000000000000,
100000000000000000000000000000000000000000000000,
100000000000000000000000100000000000000000000000,
200000000000000000000000000000000000000000000000,
100000000000000000000000100000000000000000000000,
100000000000000000000000000000000000000000000000,
100000000000000000000000100000000000000000000000,
200000000000000000000000000000000000000000000000,
300000000000000000000000000000000000000000000000,
100000000000000000000000000000000000000000000000,
100000000000000000000000000000000000000000000000,
100000000000000000000000000000000000000000000000,
100000000000000000000000100000000000000000000000,
100000000000000000000000100000000000000000000000,
100000000000100000000000100000000000100000000000,
500000000000000000800000000000000000000000000000,
#GOGOSTART
100000000000100000000000100000000000100000000000,
100000000000100000000000100000000000100000000000,
200000000000200000000000200000000000200000000000,
000000000000400000000000400000000000000000000000,
100000000000100000000000100000000000000000000000,
200000000000200000000000200000000000000000000000,
100000000000100000000000100000000000100000000000,
300000000000000000000000400000000000000000000000,
100000000000100000000000100000000000100000000000,
100000000000100000000000100000000000100000000000,
200000000000200000000000200000000000200000000000,
000000000000400000000000400000000000000000000000,
300000000000300000000000300000000000300000000000,
300000000000300000000000300000000000300000000000,
600000000000000000000000000000000000000000000000,
000000000000000000800000000000000000000000000000,
300000000000000000000000000000000000000000000000,
000000000000000000000000000000000000000000000000,
100000000000000000000000100000000000000000000000,
000000000000000000000000100000000000100000000000,
700000000000000000000000000000000000000000000000,
000000000000000000800000000000000000000000000000,
900000000000000000000000000000000000000000000000,
000000000000000000000000000000000000000000800000,
#GOGOEND
#END
COURSE:Easy
LEVEL:2
BALLOON:7,7,10
SCOREINIT:1260
SCOREDIFF:1075
#START
#GOGOSTART
100000000000000000000000000000000000000000000000,
000000000000000000000000000000000000000000000000,
100000000000000000000000000000000000000000000000,
000000000000000000000000000000000000000000000000,
100000000000000000000000000000000000000000000000,
000000000000000000000000000000000000000000000000,
700000000000000000000000000000000000000000000000,
000000000000000000800000000000000000000000000000,
#GOGOEND
100000000000000000000000000000000000000000000000,
500000000000000000000000800000000000000000000000,
300000000000000000000000300000000000000000000000,
300000000000000000000000000000000000000000000000,
200000000000000000000000000000000000000000000000,
400000000000000000000000000000000000000000000000,
300000000000000000000000300000000000000000000000,
500000000000000000800000000000000000000000000000,
100000000000000000000000100000000000000000000000,
100000000000000000000000000000000000000000000000,
100000000000000000000000100000000000000000000000,
200000000000000000000000000000000000000000000000,
100000000000000000000000100000000000000000000000,
100000000000000000000000100000000000000000000000,
300000000000600000000000000000000000000000800000,
000000000000000000000000000000000000000000000000,
100000000000000000000000000000000000000000000000,
100000000000000000000000000000000000000000000000,
100000000000000000000000100000000000000000000000,
100000000000000000000000000000000000000000000000,
200000000000000000000000000000000000000000000000,
200000000000000000000000000000000000000000000000,
200000000000000000000000200000000000000000000000,
200000000000000000000000000000000000000000000000,
300000000000000000000000000000000000000000000000,
000000000000000000000000000000000000000000000000,
200000000000000000000000000000000000000000000000,
000000000000000000000000000000000000000000000000,
100000000000000000000000100000000000000000000000,
100000000000000000000000100000000000000000000000,
500000000000000000000000000000000000000000000000,
000000000000000000800000000000000000000000000000,
#GOGOSTART
100000000000000000000000100000000000000000000000,
100000000000000000000000100000000000000000000000,
300000000000000000000000300000000000000000000000,
000000000000000000000000000000000000000000000000,
200000000000000000000000000000000000000000000000,
200000000000000000000000000000000000000000000000,
200000000000000000000000000000000000000000000000,
400000000000000000000000000000000000000000000000,
100000000000000000000000100000000000000000000000,
100000000000000000000000100000000000000000000000,
300000000000000000000000300000000000000000000000,
000000000000000000000000000000000000000000000000,
300000000000000000000000300000000000000000000000,
300000000000000000000000300000000000000000000000,
600000000000000000000000000000000000000000000000,
000000000000000000800000000000000000000000000000,
300000000000000000000000000000000000000000000000,
000000000000000000000000000000000000000000000000,
100000000000000000000000000000000000000000000000,
000000000000000000000000000000000000000000000000,
700000000000000000000000000000000000000000000000,
000000000000000000800000000000000000000000000000,
900000000000000000000000000000000000000000000000,
000000000000000000000000000000000000000000800000,
#GOGOEND
#END