Files
2023-06-15 19:15:39 -05:00

572 lines
13 KiB
Plaintext

//TJADB Project
TITLE:DANCE2
TITLEJA:DANCE2 feat.ソイソース
SUBTITLE:--ORANGE RANGE feat. Soy Sauce/Pocky Chocolate
SUBTITLEJA:グリコ「ポッキーチョコレート」CMソング
BPM:140
WAVE:DANCE2.ogg
OFFSET:-2.106
DEMOSTART:22.672
COURSE:Oni
LEVEL:8
SCOREINIT:530
SCOREDIFF:120
NOTESDESIGNER3:Matsumoto
#START
1020102010010000,
1020100100002000,
1020102010010010,
0000201100002000,
1020102010010000,
1020100100002000,
1020102010010010,
0000201100002000,
1212121210404000,
1212121210404000,
1212121210404000,
1212121210404011,
#GOGOSTART
#SECTION
#BRANCHSTART p,75,90
#N
1000202210020000,
1020100010111000,
1010202010111020,
04040404,
1000202210020000,
1020100010111000,
1010202010111020,
04040404,
#GOGOEND
1000201011201000,
1000201011201000,
1000201011201000,
1010101100200010,
2000201011201000,
1000201011201000,
1110001101010111,
1101011000000000,
11111330,
11111330,
11111330,
11111330,
12121440,
12121440,
12121440,
12121440,
1001101100002000,
1001101100002000,
1001101100002000,
1110111011101110,
1001101200002011,
1001101200002011,
1001101200002000,
1110111011101110,
100010001000100010001000100100100000100100100000,
#E
1000201011120020,
1020102011011000,
1020102010111020,
04040404,
1000201011120020,
1020102011011000,
1020102010111020,
04040404,
#GOGOEND
1011101011101011,
1010111010111000,
1022102010221000,
1020202100200000,
1020102011110000,
1020102011111000,
1110001102020222,
2202022000000000,
1212121210303000,
1212121210303000,
1212121210303000,
1212121210303000,
1122112210404000,
1122112210404000,
1122112210404000,
1122112210404000,
1001101200002011,
1001101200002011,
1001101200002000,
2220222022202220,
1001101200002011,
1001101200002011,
1001101200002000,
2220222022202220,
200020002000200020002000200200200000200200200000,
#M
1020102011120020,
1020102012021000,
1020102011111020,
04040404,
1020102011120020,
1020102012021000,
1020102011111020,
04040404,
#GOGOEND
1022201022201022,
2010222010222000,
1122120210221000,
1020122100200000,
1120112011220000,
1122112011222010,
1110001102020222,
2101011000001011,
1212121210303000,
1212121210303000,
1212121210303000,
1212121210303000,
1122112210404000,
1122112210404000,
1122112210404000,
1122112210404000,
1001101200002022,
1001101200002022,
1001101200002022,
1220122012201220,
1001101201102022,
1001101201102022,
1001101201102022,
1220122012201220,
100020002000100020002000100200200000100200200000,
#GOGOSTART
#SECTION
#BRANCHSTART p,75,90
#N
1000202210020000,
1020102011111000,
1000201010111020,
04040404,
1000202210020000,
1020102011111000,
1000201010111020,
04040404,
#GOGOEND
1001101111102000,
1001101111102000,
1001101111102000,
1110111022202000,
1002202222202000,
1002202222202000,
1002202222202000,
1110111020000000,
3,
#E
1000201011120020,
1020102011011000,
1020102010111020,
04040404,
1000201011120020,
1020102011011000,
1020102010111020,
04040404,
#GOGOEND
1001101122102000,
1001101122102000,
1001101122102000,
1120112022202000,
1002202211201000,
1002202211201000,
1002202211201000,
1120112022222220,
3,
#M
1022102011121020,
1022102011221020,
1011201011111020,
04040404,
1022102011121020,
1022102011221020,
1011201011111020,
04040404,
#GOGOEND
1022102210221212,
1122121210004000,
1122112212121022,
2020011120004000,
1022112211102000,
1022112211102000,
1022102211201020,
1122102012121222,
1,
#BRANCHEND
#END
COURSE:Hard
LEVEL:6
BALLOON:8,14,8,14,8,14,8,14,14,14
SCOREINIT:670
SCOREDIFF:150
#START
1010100010010000,
1010100010000000,
1010100010010010,
0000200200000000,
1010100010010000,
1010100010000000,
1010100010010010,
0000200200000000,
10101440,
10101440,
10101440,
7008,
#GOGOSTART
#SECTION
#BRANCHSTART p,75,90
#N
10111000,
11101000,
11201022,
04040400,
10111000,
11101000,
11201022,
04040400,
#GOGOEND
10110100,
10110100,
10110100,
22220001,
10110110,
10110110,
7,
8,
10101330,
10101330,
10101330,
10101330,
10101440,
10101440,
10101440,
10101440,
1001101100000000,
1001101100000000,
1001101100000000,
500000000000000000000000000000000008000000000000,
1001101100002000,
1001101100002000,
1001101100002000,
500000000000000000000000000000000008000000000000,
7008,
#E
1000101010020000,
1010200010020000,
11221022,
04040400,
1000101010020000,
1010200010020000,
11221022,
04040400,
#GOGOEND
1000101011101000,
1000101011101000,
1000101011101000,
2020202200000010,
1000101011101000,
1000101011101000,
9,
8,
10201330,
10201330,
10201330,
10201330,
10201440,
10201440,
10201440,
10201440,
1001101100002000,
1001101100002000,
1001101100002000,
500000000000000000000000000000000008000000000000,
1001102200002000,
1001102200002000,
1001102200002000,
500000000000000000000000000000000008000000000000,
7008,
#M
1000202010020000,
1010200011111000,
11221122,
04040400,
1000202010020000,
1010200011111000,
11221122,
04040400,
#GOGOEND
1000201011101000,
1000201011101000,
1000201011101000,
2020202200000010,
2000201011101000,
1000201011101000,
7,
8,
1111330,
1111330,
1111330,
1111330,
1111440,
1111440,
1111440,
1111440,
1001101100002000,
1001101100002000,
1001101100002000,
500000000000000000000000000000000008000000000000,
1001102200002000,
1001102200002000,
1001102200002000,
500000000000000000000000000000000008000000000000,
7008,
#GOGOSTART
#SECTION
#BRANCHSTART p,75,90
#N
10111000,
11101000,
11201022,
04040400,
10111000,
11101000,
11201022,
04040400,
#GOGOEND
1001101100002000,
1001101100002000,
1001101100002000,
500000000000000000000000000000000008000000000000,
2002202200002000,
2002202200002000,
2002202200002000,
900000000000000000000000000000000000000000000008,
#E
1000101010020000,
1010200010020000,
112210220,
04040400,
1000101010020000,
1010200010020000,
11221022,
04040400,
#GOGOEND
1001101100002000,
1001101100002000,
1001101100002000,
500000000000000000000000000000000008000000000000,
1001102200002000,
1001102200002000,
1001102200002000,
900000000000000000000000000000000000000000000008,
#M
1000202010020000,
1010200011111000,
11221122,
04040400,
1000202010020000,
1010200011111000,
11221122,
04040400,
#GOGOEND
1001101111102000,
1001101111102000,
1001101111102000,
500000000000000000000000000000000008000000000000,
1001102222202000,
1001102222202000,
1001102222202000,
9000000000000000000000000000000000000000000000008,
#BRANCHEND
#END
COURSE:Normal
LEVEL:4
BALLOON:5,12,5,12
SCOREINIT:810
SCOREDIFF:230
#START
100000000000100000000000100000000000000000000000,
100000000000000000000000000000000000000000000000,
100000000000100000000000100000000000000000000000,
100000000000000000000000200000000000000000000000,
100000000000100000000000100000000000000000000000,
100000000000000000000000000000000000000000000000,
100000000000100000000000100000000000000000000000,
100000000000000000000000200000000000000000000000,
100000000000000000000000300000300000300000000000,
100000000000000000000000300000300000300000000000,
100000000000000000000000300000300000300000000000,
700000000000000000000000000000000080000000000000,
#GOGOSTART
100000000000100000000000200000000000000000000000,
100000000000100000000000200000000000000000000000,
100000000000200000000000100000000000200000000000,
000000400000000000400000000000400000000000000000,
100000000000100000000000200000000000000000000000,
100000000000100000000000200000000000000000000000,
100000000000200000000000100000000000200000000000,
000000400000000000400000000000400000000000000000,
#GOGOEND
100000000000000000000000100000000000100000000000,
100000000000000000000000100000000000000000000000,
200000000000000000000000200000000000200000000000,
200000000000000000000000200000000000000000000000,
100000000000000000000000100000000000200000000000,
100000000000000000000000100000000000000000000000,
9,
8,
100000000000000000000000300000300000300000000000,
100000000000000000000000300000300000300000000000,
100000000000000000000000300000300000300000000000,
100000000000000000000000300000300000300000000000,
100000000000000000000000400000400000400000000000,
100000000000000000000000400000400000400000000000,
100000000000000000000000400000400000400000000000,
100000000000000000000000400000400000400000000000,
100000000000000000000000200000000000000000000000,
100000000000000000000000100000000000000000000000,
100000000000000000000000200000000000000000000000,
500000000000000000000000000000000080000000000000,
100000000000000000000000200000000000000000000000,
100000000000000000000000100000000000000000000000,
100000000000000000000000200000000000000000000000,
500000000000000000000000000000000080000000000000,
700000000000000000000000000000000080000000000000,
#GOGOSTART
100000000000100000000000200000000000200000000000,
100000000000100000000000200000000000000000000000,
100000000000200000000000100000000000200000000000,
000000400000000000400000000000400000000000000000,
100000000000100000000000200000000000200000000000,
100000000000100000000000200000000000000000000000,
100000000000200000000000100000000000200000000000,
000000400000000000400000000000400000000000000000,
#GOGOEND
100000000000000000000000100000000000200000000000,
100000000000000000000000100000000000000000000000,
100000000000000000000000100000000000200000000000,
500000000000000000000000000000000080000000000000,
100000000000000000000000100000000000200000000000,
100000000000000000000000100000000000000000000000,
100000000000000000000000100000000000200000000000,
900000000000000000000000000000000000000000000008,
#END
COURSE:Easy
LEVEL:3
BALLOON:4,10,4,10
SCOREINIT:740
SCOREDIFF:220
#START
100000000000000000000000000000000000000000000000,
100000000000000000000000100000000000000000000000,
100000000000000000000000000000000000000000000000,
100000000000000000000000200000000000000000000000,
100000000000000000000000000000000000000000000000,
100000000000000000000000100000000000000000000000,
100000000000000000000000000000000000000000000000,
100000000000000000000000200000000000000000000000,
100000000000100000000000000000000000300000000000,
100000000000100000000000000000000000300000000000,
100000000000100000000000000000000000300000000000,
700000000000000000000000000000800000000000000000,
#GOGOSTART
100000000000100000000000100000000000000000000000,
100000000000100000000000100000000000000000000000,
200000000000200000000000200000000000000000000000,
400000000000000000000000400000000000000000000000,
100000000000100000000000100000000000000000000000,
100000000000100000000000100000000000000000000000,
200000000000200000000000200000000000000000000000,
400000000000000000000000400000000000000000000000,
#GOGOEND
100000000000000000000000100000000000000000000000,
100000000000000000000000300000000000000000000000,
200000000000000000000000200000000000000000000000,
200000000000000000000000400000000000000000000000,
100000000000000000000000200000000000000000000000,
100000000000000000000000200000000000000000000000,
9,
8,
100000000000100000000000000000000000300000000000,
100000000000100000000000000000000000300000000000,
100000000000100000000000000000000000300000000000,
100000000000100000000000000000000000300000000000,
100000000000100000000000000000000000400000000000,
100000000000100000000000000000000000400000000000,
100000000000100000000000000000000000400000000000,
100000000000100000000000000000000000400000000000,
100000000000000000000000000000000000000000000000,
100000000000000000000000000000000000000000000000,
100000000000000000000000000000000000000000000000,
500000000000000000000000800000000000000000000000,
100000000000000000000000200000000000000000000000,
100000000000000000000000200000000000000000000000,
100000000000000000000000200000000000000000000000,
500000000000000000000000800000000000000000000000,
700000000000000000000000000000800000000000000000,
#GOGOSTART
100000000000100000000000100000000000000000000000,
100000000000100000000000100000000000000000000000,
200000000000200000000000200000000000000000000000,
400000000000000000000000400000000000000000000000,
100000000000100000000000100000000000000000000000,
100000000000100000000000100000000000000000000000,
200000000000200000000000200000000000000000000000,
400000000000000000000000400000000000000000000000,
#GOGOEND
100000000000000000000000200000000000000000000000,
100000000000000000000000100000000000000000000000,
100000000000000000000000200000000000000000000000,
500000000000000000000000800000000000000000000000,
100000000000000000000000200000000000000000000000,
100000000000000000000000200000000000000000000000,
100000000000000000000000200000000000000000000000,
900000000000000000000000000000000000000000000008,
#END