forked from ESE/ESE
526 lines
8.9 KiB
Plaintext
526 lines
8.9 KiB
Plaintext
//TJADB Project
|
|
TITLE:Dai Meiwaku
|
|
TITLEJA:大迷惑
|
|
SUBTITLE:--Unicorn
|
|
BPM:187
|
|
WAVE:Dai Meiwaku.ogg
|
|
OFFSET:-2.635
|
|
DEMOSTART:60.543
|
|
|
|
COURSE:Oni
|
|
LEVEL:8
|
|
|
|
STYLE:Double
|
|
BALLOON:8,8,9,9
|
|
|
|
|
|
#START P1
|
|
|
|
|
|
,
|
|
3000100010011010,
|
|
21212121,
|
|
21212121,
|
|
0332,
|
|
2222,
|
|
5,
|
|
000000000008000000000000100000100000000000100000,
|
|
01100000,
|
|
2000200020111010,
|
|
10221120,
|
|
11220000,
|
|
7008,
|
|
11002200,
|
|
11120211,
|
|
10110000,
|
|
10101101,
|
|
20220330,
|
|
10221120,
|
|
00001122,
|
|
12121022,
|
|
12121022,
|
|
12121022,
|
|
12102022,
|
|
10221120,
|
|
12201202,
|
|
12203030,
|
|
500000000000000000000000000008000000300000000000,
|
|
3030001010222020,
|
|
1010201010111070,
|
|
0008,
|
|
500000000000000000000000000008000000300000000000,
|
|
3030001010222020,
|
|
40403303,
|
|
11221122,
|
|
500000000000000000000000000008000000300000000000,
|
|
3030001010222020,
|
|
1010201010111000,
|
|
0011101110111000,
|
|
500000000000000000000000000008000000300000000000,
|
|
3030001010222020,
|
|
12121212,
|
|
1022202010201000,
|
|
30303300,
|
|
1011101110111010,
|
|
0010201010111020,
|
|
1000201011102000,
|
|
0010201010111020,
|
|
1000201011102000,
|
|
0010201010111020,
|
|
1000201011102000,
|
|
01211121,
|
|
30303033,
|
|
0010201010111020,
|
|
1000201011102000,
|
|
0010201010111020,
|
|
1010201011102000,
|
|
11121112,
|
|
11121112,
|
|
31123112,
|
|
3333,
|
|
3,
|
|
|
|
|
|
#END
|
|
|
|
|
|
#START P2
|
|
|
|
|
|
,
|
|
3000100010011010,
|
|
5,
|
|
000000000008000000000000100000100000000000100000,
|
|
0332,
|
|
2222,
|
|
21212121,
|
|
21212121,
|
|
01100000,
|
|
2000200020111010,
|
|
10221120,
|
|
00001122,
|
|
12121022,
|
|
12121022,
|
|
12121022,
|
|
12102202,
|
|
10101101,
|
|
20220330,
|
|
10221120,
|
|
11220000,
|
|
7008,
|
|
11002200,
|
|
11120211,
|
|
10110000,
|
|
10221120,
|
|
12201202,
|
|
12203030,
|
|
500000000000000000000000000008000000300000000000,
|
|
3030001010222020,
|
|
1010201010111000,
|
|
0011101110111000,
|
|
500000000000000000000000000008000000300000000000,
|
|
3030001010222020,
|
|
40403303,
|
|
11221122,
|
|
500000000000000000000000000008000000300000000000,
|
|
3030001010222020,
|
|
1010201010111070,
|
|
0008,
|
|
500000000000000000000000000008000000300000000000,
|
|
3030001010222020,
|
|
12121212,
|
|
1022202010201000,
|
|
30303300,
|
|
1011101110111010,
|
|
0010201010111020,
|
|
1000201011102000,
|
|
0010201010111020,
|
|
1000201011102000,
|
|
0010201010111020,
|
|
1000201011102000,
|
|
01211121,
|
|
30303033,
|
|
0010201010111020,
|
|
1000201011102000,
|
|
0010201010111020,
|
|
1010201011102000,
|
|
11121112,
|
|
11121112,
|
|
31123112,
|
|
3333,
|
|
3,
|
|
|
|
|
|
#END
|
|
|
|
|
|
COURSE:Hard
|
|
LEVEL:6
|
|
|
|
STYLE:Double
|
|
BALLOON:7,8
|
|
|
|
|
|
#START P1
|
|
|
|
|
|
,
|
|
1000100010011000,
|
|
20202220,
|
|
20202222,
|
|
0112,
|
|
2222,
|
|
5,
|
|
000000000008000000000000100000100000000000100000,
|
|
01100000,
|
|
1000100010111010,
|
|
10221120,
|
|
11220000,
|
|
7008,
|
|
11002200,
|
|
11110111,
|
|
10110000,
|
|
10101101,
|
|
00000330,
|
|
10221120,
|
|
00001122,
|
|
10101022,
|
|
10101022,
|
|
10101022,
|
|
10101022,
|
|
10221120,
|
|
11101101,
|
|
01103030,
|
|
500000000000000000000000000008000000300000000000,
|
|
30101220,
|
|
1000101010111070,
|
|
0008,
|
|
500000000000000000000000000008000000300000000000,
|
|
30101220,
|
|
20201100,
|
|
11221122,
|
|
500000000000000000000000000008000000300000000000,
|
|
30101220,
|
|
1000101010111000,
|
|
1020102010111000,
|
|
500000000000000000000000000008000000300000000000,
|
|
30101220,
|
|
10101111,
|
|
10002210,
|
|
30303300,
|
|
1010101010111010,
|
|
0010101010111010,
|
|
10111120,
|
|
0010101010111010,
|
|
10111120,
|
|
0010101010111010,
|
|
10111120,
|
|
01111110,
|
|
30303033,
|
|
0010101010111010,
|
|
10111120,
|
|
0010101010111010,
|
|
10111120,
|
|
11121112,
|
|
11121112,
|
|
11121110,
|
|
3333,
|
|
3,
|
|
|
|
|
|
#END
|
|
|
|
|
|
#START P2
|
|
|
|
|
|
,
|
|
1000100010011000,
|
|
5,
|
|
000000000008000000000000100000100000000000100000,
|
|
0112,
|
|
2222,
|
|
20202220,
|
|
20202222,
|
|
01100000,
|
|
1000100010111010,
|
|
10221120,
|
|
00001122,
|
|
10101022,
|
|
10101022,
|
|
10101022,
|
|
10102202,
|
|
10101101,
|
|
00000330,
|
|
10221120,
|
|
11220000,
|
|
7008,
|
|
11002200,
|
|
11110111,
|
|
10110000,
|
|
10221120,
|
|
11101101,
|
|
01103030,
|
|
500000000000000000000000000008000000300000000000,
|
|
30101220,
|
|
1000101010111000,
|
|
1020102010111000,
|
|
500000000000000000000000000008000000300000000000,
|
|
30101220,
|
|
20201100,
|
|
11221122,
|
|
500000000000000000000000000008000000300000000000,
|
|
30101220,
|
|
1000101010111070,
|
|
0008,
|
|
500000000000000000000000000008000000300000000000,
|
|
30101220,
|
|
10101111,
|
|
10002210,
|
|
30303300,
|
|
1010101010111010,
|
|
0010101010111010,
|
|
10111120,
|
|
0010101010111010,
|
|
10111120,
|
|
0010101010111010,
|
|
10111120,
|
|
01111110,
|
|
30303033,
|
|
0010101010111010,
|
|
10111120,
|
|
0010101010111010,
|
|
10111120,
|
|
11121112,
|
|
11121112,
|
|
11121110,
|
|
3333,
|
|
3,
|
|
|
|
|
|
#END
|
|
|
|
|
|
COURSE:Normal
|
|
LEVEL:4
|
|
|
|
STYLE:Double
|
|
BALLOON:6
|
|
|
|
|
|
#START P1
|
|
|
|
|
|
,
|
|
,
|
|
2222,
|
|
20202001,
|
|
0011,
|
|
1110,
|
|
5,
|
|
000000000008000000000000100000100000000000100000,
|
|
0100,
|
|
1120,
|
|
12,
|
|
10110000,
|
|
500000000000000000000000000000000008000000000000,
|
|
11000000,
|
|
1120,
|
|
1100,
|
|
10101001,
|
|
00000110,
|
|
12,
|
|
10110000,
|
|
500000000000000000000000000000000008000000000000,
|
|
00002200,
|
|
1120,
|
|
1100,
|
|
1110,
|
|
3,
|
|
,
|
|
500000000000000000000008000000000000300000000000,
|
|
31,
|
|
20202007,
|
|
0008,
|
|
500000000000000000000008000000000000300000000000,
|
|
31,
|
|
2220,
|
|
11101110,
|
|
500000000000000000000008000000000000300000000000,
|
|
31,
|
|
2220,
|
|
0222,
|
|
500000000000000000000008000000000000300000000000,
|
|
31,
|
|
1110,
|
|
3022,
|
|
13,
|
|
,
|
|
1110,
|
|
1122,
|
|
1110,
|
|
1122,
|
|
1110,
|
|
1122,
|
|
1110,
|
|
3333,
|
|
1111,
|
|
1122,
|
|
1111,
|
|
1122,
|
|
11,
|
|
1212,
|
|
1210,
|
|
3333,
|
|
3,
|
|
|
|
|
|
#END
|
|
|
|
|
|
#START P2
|
|
|
|
|
|
,
|
|
,
|
|
5,
|
|
000000000008000000000000100000100000000000100000,
|
|
0011,
|
|
1110,
|
|
2222,
|
|
20202001,
|
|
0100,
|
|
1120,
|
|
12,
|
|
10110000,
|
|
500000000000000000000000000000000008000000000000,
|
|
00002200,
|
|
1120,
|
|
1100,
|
|
10101001,
|
|
00000110,
|
|
12,
|
|
10110000,
|
|
500000000000000000000000000000000008000000000000,
|
|
11000000,
|
|
1120,
|
|
1100,
|
|
1110,
|
|
3,
|
|
,
|
|
500000000000000000000008000000000000300000000000,
|
|
31,
|
|
2220,
|
|
0222,
|
|
500000000000000000000008000000000000300000000000,
|
|
31,
|
|
2220,
|
|
11101110,
|
|
500000000000000000000008000000000000300000000000,
|
|
31,
|
|
20202007,
|
|
0008,
|
|
500000000000000000000008000000000000300000000000,
|
|
31,
|
|
1110,
|
|
3022,
|
|
13,
|
|
,
|
|
1110,
|
|
1122,
|
|
1110,
|
|
1122,
|
|
1110,
|
|
1122,
|
|
1110,
|
|
3333,
|
|
1111,
|
|
1122,
|
|
1111,
|
|
1122,
|
|
11,
|
|
1212,
|
|
1210,
|
|
3333,
|
|
3,
|
|
|
|
|
|
#END
|
|
|
|
|
|
COURSE:Easy
|
|
LEVEL:4
|
|
SCOREINIT:1400
|
|
SCOREDIFF:560
|
|
|
|
|
|
#START
|
|
|
|
|
|
000000000000000000000000000000000000000000000000,
|
|
000000000000000000000000000000000000000000000000,
|
|
200000000000000000000000200000000000000000000000,
|
|
200000000000000000000000200000000000000000100000,
|
|
000000000000000000000000100000000000000000000000,
|
|
100000000000000000000000100000000000000000000000,
|
|
500000000000000000000000000000000000000000000000,
|
|
000000800000000000000000100000000000000000000000,
|
|
100000000000100000000000000000000000000000000000,
|
|
000000000000000000000000000000000000000000000000,
|
|
100000000000000000000000200000000000000000000000,
|
|
100000000000100000000000000000000000000000000000,
|
|
500000000000000000000000800000000000000000000000,
|
|
300000000000000000000000000000000000000000000000,
|
|
100000000000000000000000200000000000000000000000,
|
|
100000000000100000000000000000000000000000000000,
|
|
100000000000000000000000100000000000000000100000,
|
|
000000000000000000000000000000000000000000000000,
|
|
100000000000000000000000200000000000000000000000,
|
|
100000000000100000000000000000000000000000000000,
|
|
500000000000000000000000800000000000000000000000,
|
|
300000000000000000000000200000000000000000000000,
|
|
100000000000000000000000200000000000000000000000,
|
|
100000000000100000000000000000000000000000000000,
|
|
100000000000000000000000100000000000000000000000,
|
|
300000000000000000000000000000000000000000000000,
|
|
000000000000000000000000000000000000000000000000,
|
|
500000000000000000800000000000000000100000000000,
|
|
100000000000000000000000000000000000000000000000,
|
|
100000000000100000000000100000000000000000000000,
|
|
500000000000000000000000000000800000000000000000,
|
|
500000000000000000800000000000000000100000000000,
|
|
100000000000000000000000000000000000000000000000,
|
|
200000000000000000000000100000000000000000500000,
|
|
000000000000000000000000800000000000000000000000,
|
|
500000000000000000800000000000000000100000000000,
|
|
100000000000000000000000000000000000000000000000,
|
|
100000000000000000000000100000000000000000000000,
|
|
500000000000000000000000800000000000000000000000,
|
|
500000000000000000800000000000000000100000000000,
|
|
100000000000000000000000000000000000000000000000,
|
|
100000000000000000000000100000000000100000000000,
|
|
100000000000000000000000100000000000100000000000,
|
|
100000000000000000000000300000000000000000000000,
|
|
000000000000000000000000000000000000000000000000,
|
|
100000000000100000000000100000000000000000000000,
|
|
100000000000100000000000100000000000000000000000,
|
|
100000000000100000000000100000000000000000000000,
|
|
100000000000100000000000100000000000000000000000,
|
|
100000000000100000000000100000000000000000000000,
|
|
100000000000100000000000100000000000000000000000,
|
|
100000000000100000000000100000000000000000000000,
|
|
300000000000000000000000300000000000000000000000,
|
|
100000000000100000000000100000000000100000000000,
|
|
100000000000100000000000100000000000000000000000,
|
|
100000000000100000000000100000000000100000000000,
|
|
100000000000100000000000100000000000000000000000,
|
|
100000000000000000000000100000000000000000000000,
|
|
100000000000000000000000100000000000000000000000,
|
|
100000000000000000000000100000000000000000000000,
|
|
300000000000300000000000300000000000300000000000,
|
|
300000000000000000000000000000000000000000000000,
|
|
|
|
|
|
#END
|
|
|