Files
2023-06-15 19:02:48 -05:00

373 lines
14 KiB
Plaintext

//TJADB Project
TITLE:Dairokkan
TITLEJA:第六感
SUBTITLE:--Reol/DYNAMITE BOAT RACE
SUBTITLEJA:Reol
BPM:134
WAVE:Dairokkan.ogg
OFFSET:-1.866
DEMOSTART:36.987
COURSE:Oni
LEVEL:7
BALLOON:20
SCOREINIT:1830
SCOREDIFF:0
#START
200200200000000000200200200000000000100000200000,
100000200000200000200000100000200200100000100000,
200200200000000000200200200000000000100000200000,
100000200000200000200000100100200000000000200000,
200200200000000000200200200000000000100000200000,
100000200000200000200000100000200000000000200200,
100000200000000000200200100100200000000000200000,
100000200000000000100100200000200200100000000000,
100100100000200000100100100000200000200000000000,
100000200000100000200200100000100100100000200000,
100100100000200000100100100000200000200000000000,
100000200000100000200200100000100000200200200000,
100000100000200000100000100000200200200000100100,
100000100000200000100100100000100000200000100100,
200000100000200000100100200000100000200000100000,
100000100000200000200200100000100100100000000000,
200000000000200000100200200000100000200000000200,
200000200200200200100000200000100100200000100000,
500000000000000000000000000000000000000000000000,
000000000000000000000008000000200000200200000000,
#GOGOSTART
100000000000100000200200100100000100000000200000,
300000200000300000200000100100000100200000000000,
100000100000200200200000100000100100200000200000,
100100100000100100100000100000100000400000000000,
100000000000100000200200100000100100000000200000,
300000200000300000200000100100100000200000100000,
100000100000200000100000200000200200200000100000,
100000200000200000100100200000100000200000100100,
100000200200100000200200100000200000300000300000,
#GOGOEND
000000200000100200000200100000200100200000200000,
#GOGOSTART
500000000000000000000000000008000000200000200000,
#GOGOEND
100000200000100200200200000200200200100000200020,
#GOGOSTART
500000000000000000000008000000200200200000200000,
#GOGOEND
200000100000200000100000200000100100100100200200,
#GOGOSTART
500000000000000000000000000008000000200000000000,
#GOGOEND
100000400000100100100200100100100200100000000000,
300000200000200000300000200000200000700000000000,
000000000000000000000000000000000000800000000000,
100000100000100100100000200000100000200000100100,
100000100000200000100000200000200200100200200000,
100000100000100100100000200000100000200000100100,
100000100000200000100000200000200200100100200000,
100000100000000000100100100000200000100000200000,
000000100000100000100100100000100000200200200000,
100000100000200200200000100100200000200200100000,
100200200000200100100000200000100000200200100100,
200000200000000000200000200100100000200000000000,
100000200000200000200000100100100000200000100000,
200000200000000000200000200100100000200000100000,
000000100000200000100100000100100000200000100000,
100000000000200000100000100000100000200000100000,
100000000000200000100000100000100000200000100000,
100100100000200100100000100100100100200100100100,
500000000000000000000008000000200000200200000000,
#GOGOSTART
100000000000100000200200100100000100000000200000,
300000200000300000200000100100000100200200200000,
100000100000200200200000100000100100200000200000,
100100100000100100100000100000100000400000400000,
100000000000100000200200100000100100000000200000,
300000200000300000200000100100100000200000100000,
100000200000100000200000100000200200200000100100,
100000200000100000200200100100100000200000100100,
100000200200100100200200100100100000300000300000,
#GOGOEND
000000200000100200000200100000200100200000400000,
#END
COURSE:Hard
LEVEL:5
BALLOON:12,16
SCOREDIFF:0
#START
200000200000000000200000200000000000000000000000,
100000200000200000200000100000200000000000100000,
200000200000000000200000200000000000000000000000,
100000200000200000200000100000200000000000000000,
200000200000000000200000200000000000000000000000,
100000200000200000200000100000200000000000200000,
100000200000000000200000200200200000000000200000,
700000000000000000000000000000000800000000000000,
100000100000000000100000100000000000200000000000,
100000000000100000000000100000100000100000200000,
100000100000000000100000100000000000200000000000,
100000000000100000000000100000100000000000000000,
100000100000200000100000100000200000200000100100,
100000100000000000100100100000100000000000100100,
100000100000000000100000000000100000000000100000,
100000000000100000000000100000100100100000000000,
200000000000200000000000200000100000200000000000,
200000000000200000000000200000100000200000100000,
500000000000000000000000000000000000000000000000,
000000000000000000000080000000000000000000000000,
#GOGOSTART
100000000000100000000000100100000100000000100000,
300000000000300000000000100100000100000000000000,
100000100000200000200000100000100000200000200000,
100000100000100000100000000000000000400000000000,
100000000000100000000000100000100100000000100000,
300000000000300000000000100100100000000000100000,
100000100000200000100000100000000000200000100000,
100000100000200000100000200000000000200000100000,
100000200000200000100000200000000000300000300000,
#GOGOEND
000000200000000200000000100000200000200000200000,
#GOGOSTART
500000000000000000000000000080000000200000000000,
#GOGOEND
100000000000200000200200200000100000400000000000,
#GOGOSTART
500000000000000000000000000080000000200000000000,
#GOGOEND
200000100000200000100000200000100100100000000000,
#GOGOSTART
500000000000000000000000000080000000200000000000,
#GOGOEND
100000000000100100100000100100100000100000000000,
300000000000000000300000000000000000700000000000,
000000000000000000000000000000000800000000000000,
100000100000100000000000100000100000000000200000,
100000100000100000100000000000200000200000200000,
100000100000100000000000100000100000000000200000,
100000100000100000100000000000200000200000200000,
100000100000000000100000100000100000100000100000,
000000100000100000000000100000100000100000200000,
100000200000100000000000100000200000100000200000,
100000100000100100100000100000100000200000000000,
200000200000000000200000200000000000100000000000,
100000200000200000200000100000200000100000000000,
200000200000000000200000200000000000000000100000,
000000100000200000100000000000100000100000100000,
100000000000200000000000100000100000100000000000,
100000000000200000000000100000100000100000000000,
100000100000100100100000100000100000100100100000,
500000000000000000000080000000000000000000000000
#GOGOSTART
100000000000100000000000100100000100000000100000,
300000000000300000000000100100000100000000000000,
100000100000200000200000100000100000200000200000,
100000100000100000100000000000000000400000000000,
100000000000100000000000100000100100000000100000,
300000000000300000000000100100100000000000100000,
100000100000200000100000100000000000200000100000,
100000100000200000100000200000000000200000100000,
100000200000200000100000200000000000300000300000,
#GOGOEND
000000200000000200000000100000200000200000400000,
#END
COURSE:Normal
LEVEL:5
BALLOON:8,10
SCOREDIFF:0
#START
200000200000000000200000200000000000000000000000,
200000000000000000000000100000000000000000000000,
200000200000000000200000200000000000000000000000,
200000000000000000000000100000000000000000000000,
200000200000000000200000200000000000000000000000,
200000000000000000000000100000000000000000200000,
200000000000000000200000200000200000000000000000,
700000000000000000000000000000800000000000000000,
100000100000000000100000100000000000000000000000,
100000000000100000000000100000100000100000000000,
100000100000000000100000100000000000000000000000,
100000000000100000000000100000100000000000000000,
100000000000100000100000100000000000200000000000,
100000100000000000000000100000100000000000000000,
100000100000000000100000000000100000000000100000,
100000000000100000000000100000100000100000000000,
200000000000200000000000200000000000200000000000,
200000000000200000000000200000000000200000000000,
500000000000000000000000000000000000000000000000,
000000000000000000000080000000000000000000000000,
#GOGOSTART
100000000000100000000000100000000100000000000000,
300000000000300000000000300000000000000000000000,
100000000000200000000000100000000000200000000000,
100000100000100000100000000000000000400000000000,
100000000000100000000000100000000100000000000000,
300000000000300000000000300000000000000000000000,
100000000000100000100000100000000000200000000000,
100000000000100000100000100000000000200000000000,
100000000000100000100000100000000000300000300000,
#GOGOEND
000000000000000000000000200000200000200000200000,
#GOGOSTART
500000000000000000000000000080000000000000000000,
#GOGOEND
100000000000200000000000000000100000400000000000,
#GOGOSTART
500000000000000000000000000080000000000000000000,
#GOGOEND
200000100000200000100000200000000000000000000000,
#GOGOSTART
500000000000000000000000000080000000000000000000,
#GOGOEND
100000000000100000000000100000000000100000000000,
300000000000000000300000000000000000700000000000,
000000000000000000000000000000800000000000000000,
100000000000100000000000100000100000000000000000,
100000000000100000100000000000000000200000000000,
100000000000100000000000100000100000000000000000,
100000000000100000100000000000000000200000000000,
100000100000000000100000100000000000100000100000,
000000100000100000000000100000000000200000000000,
100000000000100000000000100000100000100000000000,
100000100000100000000000100000000000200000000000,
200000200000000000200000200000000000000000000000,
100000000000100000000000100000100000100000000000,
200000200000000000200000200000000000000000100000,
000000100000000000100000000000100000100000100000,
100000000000200000000000100000000000100000000000,
100000000000200000000000100000000000100000000000,
100000100000100000000000100000100000100000000000,
500000000000000000000080000000000000000000000000,
#GOGOSTART
100000000000100000000000100000000100000000000000,
300000000000300000000000300000000000000000000000,
100000000000200000000000100000000000200000000000,
100000100000100000100000000000000000000000000000,
100000000000100000000000100000000100000000000000,
300000000000300000000000300000000000000000000000,
100000000000100000100000100000000000200000000000,
100000000000100000100000100000000000200000000000,
100000000000100000100000100000000000300000300000,
#GOGOEND
000000000000000000000000200000200000200000400000,
#END
COURSE:Easy
LEVEL:3
BALLOON:6,4,8,7,4
SCOREDIFF:0
#START
200000000000000000000000000000000000000000000000,
200000000000000000000000000000000000000000000000,
200000000000000000000000000000000000000000000000,
200000000000000000000000000000000000000000000000,
200000000000000000000000000000000000000000000000,
200000000000000000000000000000000000000000000000,
200000000000000000000000000000000000000000000000,
700000000000000000000000000000800000000000000000,
100000000000000000000000100000000000000000000000,
100000000000000000000000000000000000000000000000,
100000000000000000000000100000000000000000000000,
100000000000000000000000000000000000000000000000,
100000000000000000000000100000000000000000000000,
100000000000000000000000100000000000000000000000,
100000000000000000000000000000000000000000000000,
100000000000000000000000100000000000000000000000,
200000000000000000000000200000000000000000000000,
200000000000000000000000200000000000000000000000,
500000000000000000000000000000000000000000000000,
000000000000000000000080000000000000000000000000,
#GOGOSTART
100000000000000000000000100000000000000000000000,
300000000000300000000000300000000000000000000000,
100000000000000000000000100000000000000000000000,
100000000000100000000000000000000000000000000000,
100000000000000000000000100000000000000000000000,
300000000000300000000000300000000000000000000000,
100000000000000000000000100000000000100000000000,
100000000000000000000000100000000000100000000000,
100000000000000000000000700000000000000000800000,
#GOGOEND
000000000000000000000000000000200000000000000000,
#GOGOSTART
500000000000000000000000000080000000000000000000,
#GOGOEND
100000000000000000000000000000100000000000000000,
#GOGOSTART
500000000000000000000000000080000000000000000000,
#GOGOEND
200000000000200000000000200000000000000000000000,
#GOGOSTART
500000000000000000000000000080000000000000000000,
#GOGOEND
100000000000000000000000100000000000000000000000,
300000000000000000300000000000000000700000000000,
000000000000000000800000000000000000000000000000,
100000000000000000000000100000000000000000000000,
100000000000100000000000000000000000000000000000,
100000000000000000000000100000000000000000000000,
100000000000100000000000000000000000000000000000,
100000000000000000000000100000000000000000000000,
000000500000000000000000000080000000000000000000,
100000000000000000000000100000000000000000000000,
100000000000100000000000100000000000000000000000,
200000000000000000000000200000000000000000000000,
200000000000000000000000000000000000000000000000,
200000000000000000000000200000000000000000700000,
000000000000000000000000000000800000000000000000,
100000000000100000000000000000000000000000000000,
100000000000100000000000000000000000000000000000,
100000000000100000000000100000000000100000000000,
500000000000000000000080000000000000000000000000,
#GOGOSTART
100000000000000000000000100000000000000000000000,
300000000000300000000000300000000000000000000000,
100000000000000000000000100000000000000000000000,
100000000000100000000000000000000000000000000000,
100000000000000000000000100000000000000000000000,
300000000000300000000000300000000000000000000000,
100000000000000000000000100000000000100000000000,
100000000000000000000000100000000000100000000000,
100000000000000000000000700000000000000000800000,
#GOGOEND
000000000000000000000000000000000000000000400000,
#END