Files
2023-06-15 19:15:39 -05:00

301 lines
12 KiB
Plaintext

//TJADB Project
TITLE:Dao Ma Dan
TITLEJA:刀馬旦
SUBTITLE:--Coco Lee
SUBTITLEJA:李玟
BPM:150
WAVE:Dao Ma Dan.ogg
OFFSET:-1.844
DEMOSTART:52.969
COURSE:Oni
LEVEL:7
SCOREINIT:590
SCOREDIFF:140
#START
100000000000100000100000200000000000100000200000,
100000000000200000000000200000000000200000200000,
100000000000200000000000200000000000200000200000,
100000000100200000000200100000200200100200000100,
100000000000100000100000200000000000100000200000,
100000000000200000000000200000000000200000200000,
100000000000200000000000200000000000200000100000,
100000000100200000100000200200100000200000000200,
100000000000100000000100200000000000100100100000,
100000000000100000000100200000000000100100100000,
100000000000100000000100200000000000100100100000,
100000000100000000100000200000100000200200100100,
100000000000100000000100200000000000100100100000,
100000000000100000000100200000000000100100100000,
100000000000100000000100200000000000100100100000,
100000000100000000100000200200200200100200000000,
100000000000100000000100200000000000100100100000,
100000000000100000000100200000000000100100100000,
100000000000100000000100200000000000100100100000,
100000000100000000100000200000100000200200100100,
100000000000100000000100200000000000100100100000,
100000000000100000000100200000000000100100100000,
100000000000100000000100200000000000100100100000,
100100200100000000100000200200200200100200000100,
100000000100200000100000200000200200100000200000,
100000000100200000100000200000200200200000200000,
100000000100200000100000200000200200100000200000,
100000100100100000100000200000100100200000000100,
100000000100200000100000200000200200100000200000,
100000000100200000100000200200200200100000200000,
100000000100200000100000200000200200100000200000,
100100200100000000100000200200200200100000000000,
#GOGOSTART
100000000100200000100000200000200200100000200000,
100000000100200000100000200200200000200200100000,
100000000100200000100000200200200000200200100000,
000000300000000000400000100200200100200000000200,
100000000100200000100000200000200200100000200000,
100000000100200000100000200200200000200200100000,
100000000100200000100000200200200000200200100000,
100000000100200000100000200200200100200000000200,
100000000100200000100000200000200200100000200000,
100000000100200000100000200200200000200200100000,
100000000100200000100000200200200000200200100000,
000000300000000000400000100200200100200000000200,
100000000100200000100000200000200200100000200000,
100000000100200000100000200200200000200200100000,
100000000100200000100000200200200000200200100000,
100000000100200000100000200200200100200000000200,
100000000100200200100000200000200200100200200000,
100000000100200200100000200200200000200200100000,
100000000100200200100000200200200000200200100000,
000000300000000000400000100200200100200000000200,
100000000100200200100000200000200200100200200000,
100000000100200200100000200200200000200200100000,
100000000100200200100000200200200000200200100000,
100000000100200200100000100200200100200000000100,
#GOGOEND
100000000000000000000000000000000000000000000000,
#END
COURSE:Hard
LEVEL:5
SCOREINIT:640
SCOREDIFF:170
#START
100000000000100000100000200000000000200000200000,
100000000000200000000000200000000000200000200000,
100000000000200000000000200000000000200000200000,
100000000100000000100000100100100000100100100000,
100000000000100000100000200000000000200000200000,
100000000000200000000000200000000000200000200000,
100000000000200000000000200000000000200000200000,
100000000100000000100000100100100000200000000000,
100000000000000000000100100000000000100000000000,
100000000000000000000100100000000000100000000000,
100000000000000000000100100000000000100000000000,
100000000100000000100000200000100000000000100100,
100000000000000000000200200000000000100000000000,
100000000000000000000200200000000000100000000000,
100000000000000000000200200000000000100000000000,
100000000100000000100000200200200000200200200000,
100000000000000000000100100000000000100000000000,
100000000000000000000100100000000000100000000000,
100000000000000000000100100000000000100000000000,
100000000100000000100000200000100000000000100100,
100000000000000000000200200000000000100000000000,
100000000000000000000200200000000000100000000000,
100000000000000000000200200000000000100000000000,
100000000100000000100000200200200000200200200000,
100000000000200000100000200000000000100000200000,
100000000000200000100000200000000000200000200000,
100000000000200000100000200000000000100000200000,
100000100100100000000000100000100100100000000000,
100000000000200000100000200000000000100000200000,
100000000000200000100000200000000000100000200000,
100000000000200000100000200000000000100000200000,
100000000100000000100000200200200000200000000000,
#GOGOSTART
100000000000100000100000100000100100100000000000,
100000000000100000100000100000100100100000000000,
100000000000100000100000100000000000200000200000,
000000300000000000300000400000000000400000000000,
100000000000100000100000100000100100100000000000,
100000000000100000100000100000100100100000000000,
100000000000100000100000100000000000200000200000,
500000000000000000000000000000000800000000000000,
100000000000100000100000100000100100100000000000,
100000000000100000100000100000100100100000000000,
100000000000100000100000100000000000200000200000,
000000300000000000300000400000000000400000000000,
100000000000100000100000100000100100100000000000,
100000000000100000100000100000100100100000000000,
100000000000100000100000100000000000200000200000,
500000000000000000000000000000000800000000000000,
100000000000100000100000100000100100100000100000,
100000000100100000100000100000000000200000000000,
100000000100100000100000100000000000200000200000,
000000300000000000300000400000000000400000000000,
100000000000100000100000100000100100100000100000,
100000000100100000100000100000000000200000000000,
100000000100100000100000100000000000200000200000,
500000000000000000000000000000000000008000000000,
#GOGOEND
#END
COURSE:Normal
LEVEL:4
SCOREINIT:1110
SCOREDIFF:310
#START
100000000000000000000000200000000000000000000000,
100000000000100000000000100000000000000000000000,
100000000000100000000000100000000000000000000000,
500000000000000000000000800000000000000000000000,
100000000000000000000000200000000000000000000000,
100000000000100000000000100000000000000000000000,
100000000000100000000000100000000000000000000000,
500000000000000000000000800000000000000000000000,
100000000000000000000000100000000000100000000000,
100000000000000000000000100000000000100000000000,
100000000000000000000000100000000000100000000000,
100000000000000000000000200000000000000000000000,
100000000000000000000000100000000000100000000000,
200000000000000000000000100000000000100000000000,
200000000000000000000000100000000000100000000000,
200000000000000000000000200000000000000000000000,
100000000000000000000000100000000000100000000000,
100000000000000000000000100000000000100000000000,
100000000000000000000000100000000000100000000000,
100000000000000000000000200000000000000000000000,
100000000000000000000000100000000000100000000000,
200000000000000000000000100000000000100000000000,
200000000000000000000000100000000000100000000000,
200000000000000000000000200000000000000000000000,
100000000000100000000000200000000000200000000000,
100000000000000000000000200000000000000000000000,
100000000000100000000000200000000000200000000000,
100000000000000000000000100000000000000000000000,
100000000000100000000000200000000000200000000000,
100000000000000000000000200000000000000000000000,
100000000000100000000000200000000000200000000000,
500000000000000000000000800000000000000000000000,
#GOGOSTART
100000000000100000000000100000000000000000000000,
100000000000100000000000200000000000000000000000,
100000000000100000000000200000000000000000000000,
000000300000000000000000300000000000000000000000,
100000000000100000000000100000000000000000000000,
100000000000100000000000200000000000000000000000,
100000000000100000000000200000000000200000000000,
500000000000000000000000800000000000000000000000,
100000000000100000000000100000000000000000000000,
100000000000100000000000200000000000000000000000,
100000000000100000000000200000000000000000000000,
000000300000000000000000300000000000000000000000,
100000000000100000000000100000000000000000000000,
100000000000100000000000200000000000000000000000,
100000000000100000000000200000000000200000000000,
500000000000000000000000800000000000000000000000,
100000000000100000000000100000000000000000000000,
100000000000100000000000200000000000000000000000,
100000000000100000000000200000000000000000000000,
000000300000000000000000300000000000000000000000,
100000000000100000000000100000000000000000000000,
100000000000100000000000200000000000000000000000,
100000000000100000000000200000000000200000000000,
500000000000000000000000000000000000008000000000,
#GOGOEND
#END
COURSE:Easy
LEVEL:4
SCOREINIT:850
SCOREDIFF:250
#START
100000000000000000000000100000000000000000000000,
100000000000100000000000100000000000000000000000,
100000000000100000000000100000000000000000000000,
500000000000000000000000800000000000000000000000,
100000000000000000000000100000000000000000000000,
100000000000100000000000100000000000000000000000,
100000000000100000000000100000000000000000000000,
500000000000000000000000800000000000000000000000,
100000000000000000000000100000000000100000000000,
100000000000000000000000100000000000100000000000,
100000000000000000000000100000000000100000000000,
100000000000000000000000000000000000000000000000,
100000000000000000000000200000000000200000000000,
200000000000000000000000200000000000200000000000,
200000000000000000000000200000000000200000000000,
200000000000000000000000000000000000000000000000,
100000000000000000000000100000000000100000000000,
100000000000000000000000100000000000100000000000,
100000000000000000000000100000000000100000000000,
100000000000000000000000000000000000000000000000,
100000000000000000000000200000000000200000000000,
200000000000000000000000200000000000200000000000,
200000000000000000000000200000000000200000000000,
200000000000000000000000000000000000000000000000,
100000000000000000000000200000000000000000000000,
100000000000100000000000200000000000000000000000,
100000000000000000000000200000000000000000000000,
100000000000100000000000100000000000000000000000,
100000000000000000000000200000000000000000000000,
100000000000100000000000200000000000000000000000,
100000000000000000000000200000000000000000000000,
500000000000000000000000800000000000000000000000,
#GOGOSTART
100000000000000000000000100000000000000000000000,
100000000000100000000000100000000000000000000000,
100000000000000000000000100000000000000000000000,
000000300000000000000000300000000000000000000000,
100000000000000000000000100000000000000000000000,
100000000000100000000000100000000000000000000000,
100000000000000000000000100000000000100000000000,
500000000000000000000000800000000000000000000000,
100000000000000000000000200000000000000000000000,
100000000000100000000000100000000000000000000000,
100000000000000000000000100000000000000000000000,
000000300000000000000000300000000000000000000000,
100000000000000000000000200000000000000000000000,
100000000000100000000000100000000000000000000000,
100000000000000000000000100000000000100000000000,
500000000000000000000000800000000000000000000000,
100000000000000000000000200000000000000000000000,
100000000000100000000000100000000000000000000000,
100000000000000000000000100000000000000000000000,
000000300000000000000000300000000000000000000000,
100000000000000000000000200000000000000000000000,
100000000000100000000000100000000000000000000000,
100000000000000000000000100000000000100000000000,
500000000000000000000000000000000000008000000000,
#GOGOEND
#END