forked from ESE/ESE
286 lines
11 KiB
Plaintext
286 lines
11 KiB
Plaintext
//TJADB Project
|
|
TITLE:Darling
|
|
TITLEJA:Darling
|
|
SUBTITLE:--V6/Kimi wa Pet
|
|
BPM:132
|
|
WAVE:Darling.ogg
|
|
OFFSET:-7.328
|
|
DEMOSTART:78.218
|
|
|
|
COURSE:Oni
|
|
LEVEL:7
|
|
BALLOON:12
|
|
|
|
|
|
#START
|
|
|
|
|
|
100000100000200000200000100000100000200200200000,
|
|
100000100000200000300000000000000000100000100000,
|
|
100000200200200000200000000000100000200000100000,
|
|
000000100100100000100000100000200000200200200000,
|
|
100000100000200000200000100000100000200200200000,
|
|
100000100000200000300000000000000000100000100000,
|
|
100000200200200000200000000000300000300000000000,
|
|
500000000000000000000000000000000000000000000008,
|
|
000000000000000000000000400000000000400000000000,
|
|
000000000000300000000000300000000000000000300000,
|
|
000000300000300000000000300000000000300000000000,
|
|
000000000000200000000000000000000000200000000000,
|
|
000000000000200000000000400000000000400000000000,
|
|
00001127,
|
|
0008,
|
|
100000100000200000000000100000100000200000200000,
|
|
100000100000200000100000100000200000200200200000,
|
|
100000100000200000000000100000100000200000200000,
|
|
100000100000200000100100100000200200200000200000,
|
|
100000100000200000000000100000100000200000200000,
|
|
100000100000500008000000100000100100100000100000,
|
|
200000100100100000100000200000100000100000100000,
|
|
000000000000400000000000400000400000000000000000,
|
|
100000100000200000000000100000100000200000200000,
|
|
100000100000200000100000100000200000200200200000,
|
|
100000100000200000000000100000100000200000200000,
|
|
100000100000200000100100100000200200200000200000,
|
|
100000100000200000000000100000100000200000200000,
|
|
100000100000500008000000100000100100100000100000,
|
|
200000100100100000100000200000100000100000100000,
|
|
000000000000000000000000000000100100100000100000,
|
|
000000000000100000100000000000100100100000100000,
|
|
000000000000100000100000000000100000100000100000,
|
|
100000200200100100200200100000100000200000100000,
|
|
100000200000200200000200200000000000000000000000,
|
|
000000200200200000200000000000000000000000000000,
|
|
000000200200200000200000000000100000100000100000,
|
|
300000000000300000000000300000100000300000000000,
|
|
000000100000100000100000100000200200200000200000,
|
|
100000100000200000200000100000100000200200200000,
|
|
100000100000200000300000000000000000100100100000,
|
|
100000200200200000200000000000100000200000100000,
|
|
000000100100100000100000300000000000200000200000,
|
|
100000100000200000200000100000100000200200200000,
|
|
100000100000200000300000000000000000100100100000,
|
|
100000200200200000200000000000300000300000000000,
|
|
500000000000000000000000000000000008000000000000,
|
|
100000100000200000200000100000100000200200200000,
|
|
100000100000200000300000000000000000100000100000,
|
|
100000200200200000200000000000100000200000100000,
|
|
000000100100100000100000300000000000200200200000,
|
|
100000100000200000200000100000100000200200200000,
|
|
100000100000200000300000000000000000100000100000,
|
|
100000200200200000200000000000300000300000000000,
|
|
600000000000000000000000000000000000000000000008,
|
|
|
|
|
|
#END
|
|
|
|
|
|
COURSE:Hard
|
|
LEVEL:4
|
|
BALLOON:12,10
|
|
SCOREINIT:740
|
|
SCOREDIFF:180
|
|
|
|
|
|
#START
|
|
|
|
|
|
100000100000200000000000100000100000200000000000,
|
|
100000100000200000100000000000000000100000100000,
|
|
100000200200200000200000000000100000200000100000,
|
|
000000100000100000000000100000000000200000200000,
|
|
100000100000200000000000100000100000200000000000,
|
|
100000100000200000100000000000000000100000100000,
|
|
100000200200200000200000000000100000100000000000,
|
|
500000000000000000000000000000000000000000000800,
|
|
000000000000000000000000400000000000400000000000,
|
|
000000000000300000000000300000000000000000300000,
|
|
000000300000300000000000300000000000300000000000,
|
|
000000000000200000000000000000000000200000000000,
|
|
000000000000000000000000400000000000400000000000,
|
|
00001027,
|
|
0008,
|
|
100000000000100000000000100000100000200000000000,
|
|
100000100000200000100000100000000000200200200000,
|
|
100000100000200000000000100000100000200000000000,
|
|
100000100000200000100000100000000000200000200000,
|
|
100000000000100000000000100000100000200000000000,
|
|
100000100000100000000000100000100100100000100000,
|
|
200000100100100000100000200000100000100000100000,
|
|
000000000000400000000000400000400000000000000000,
|
|
100000000000100000000000100000100000200000200000,
|
|
100000100000200000100000100000000000200200200000,
|
|
100000100000200000000000100000100000200000200000,
|
|
100000100000200000100000100000000000200000200000,
|
|
100000000000100000000000100000100000200000000000,
|
|
100000100000100000000000100000100100100000100000,
|
|
200000100100100000100000200000100000100000100000,
|
|
000000000000000000000000000000100000100000100000,
|
|
000000000000000000000000000000100100100000100000,
|
|
000000000000000000000000000000100000100000100000,
|
|
100000200000100000200000100000100000000000100000,
|
|
000000000000000000000000000000000000000000000000,
|
|
000000200000200000200000000000000000000000000000,
|
|
000000200200200000200000000000000000000000000000,
|
|
400000000000400000000000100000100000300000000000,
|
|
000000100000100000100000100000200200200000200000,
|
|
100000100000200000000000100000100000200000000000,
|
|
100000100000200000100000000000000000100000100000,
|
|
100000200200200000200000000000100000200000100000,
|
|
000000100000100000000000100000000000200000200000,
|
|
100000100000200000000000100000100000200000000000,
|
|
100000100000200000100000000000000000100000100000,
|
|
100000200200200000200000000000100000100000000000,
|
|
700000000000000000000000000000000800000000000000,
|
|
100000100000200000000000100000100000200000200000,
|
|
100000100000200000100000000000000000100000100000,
|
|
100000200200200000200000000000100000200000100000,
|
|
000000100000100000000000100000000000200000200000,
|
|
100000100000200000000000100000100000200200200000,
|
|
100000100000200000100000000000000000100000100000,
|
|
100000200200200000200000000000100000100000000000,
|
|
500000000000000000000000000000000000000000000800,
|
|
|
|
|
|
#END
|
|
|
|
|
|
COURSE:Normal
|
|
LEVEL:4
|
|
BALLOON:10,8
|
|
SCOREINIT:1170
|
|
SCOREDIFF:350
|
|
|
|
|
|
#START
|
|
|
|
|
|
100000000000200000000000100000000000200000000000,
|
|
100000100000000000100000000000000000000000000000,
|
|
100000000000000000100000000000000000100000000000,
|
|
000000000000100000000000100000000000000000000000,
|
|
100000000000200000000000100000000000200000000000,
|
|
100000100000000000100000000000000000000000000000,
|
|
100000000000000000100000000000000000100000000000,
|
|
500000000000000000000000000000000000000000800000,
|
|
000000000000000000000000200000000000200000000000,
|
|
000000000000100000000000100000000000000000100000,
|
|
000000000000100000000000100000000000100000000000,
|
|
000000000000200000000000000000000000200000000000,
|
|
000000000000000000000000200000000000200000000000,
|
|
00001007,
|
|
0008,
|
|
100000000000100000000000100000000000000000000000,
|
|
100000100000100000000000100000000000000000000000,
|
|
100000000000100000000000100000000000000000000000,
|
|
100000100000100000000000100000000000200000000000,
|
|
100000000000100000000000100000000000000000000000,
|
|
100000100000100000000000100000000000000000000000,
|
|
100000000000000000100000000000100000100000100000,
|
|
000000000000000000000000000000000000000000000000,
|
|
100000000000100000000000100000000000000000000000,
|
|
100000100000100000000000100000000000000000000000,
|
|
100000000000100000000000100000000000000000000000,
|
|
100000100000100000000000100000000000200000000000,
|
|
100000000000100000000000100000000000000000000000,
|
|
100000100000100000000000100000000000000000000000,
|
|
100000000000000000100000000000100000100000100000,
|
|
000000000000000000000000000000100000100000100000,
|
|
000000000000000000000000000000100000100000100000,
|
|
000000000000000000000000000000100000000000100000,
|
|
000000100000100000000000100000000000000000300000,
|
|
000000000000000000000000000000000000000000000000,
|
|
000000200000200000200000000000000000000000000000,
|
|
000000200000200000200000000000000000000000000000,
|
|
300000000000300000000000300000000000300000000000,
|
|
000000100000100000000000100000000000000000000000,
|
|
100000000000200000000000100000000000200000000000,
|
|
100000100000000000100000000000000000000000000000,
|
|
100000000000000000100000000000000000100000000000,
|
|
000000000000300000000000300000000000000000000000,
|
|
100000000000200000000000100000000000200000000000,
|
|
100000100000000000100000000000000000000000000000,
|
|
100000000000000000100000000000000000100000000000,
|
|
700000000000000000000000000000800000000000000000,
|
|
100000000000200000000000100000000000200000000000,
|
|
100000100000000000100000000000000000000000000000,
|
|
100000000000000000100000000000000000100000000000,
|
|
000000000000100000000000100000000000000000000000,
|
|
100000000000200000000000100000000000200000000000,
|
|
100000100000000000100000000000000000000000000000,
|
|
100000000000000000100000000000000000100000000000,
|
|
500000000000000000000000000000000000000000000008,
|
|
|
|
|
|
#END
|
|
|
|
|
|
COURSE:Easy
|
|
LEVEL:3
|
|
SCOREINIT:1150
|
|
SCOREDIFF:420
|
|
|
|
|
|
#START
|
|
|
|
|
|
100000000000000000000000100000000000000000000000,
|
|
100000000000000000300000000000000000000000000000,
|
|
100000000000100000000000100000000000000000000000,
|
|
200000000000200000000000200000000000000000000000,
|
|
100000000000000000000000100000000000000000000000,
|
|
100000000000000000300000000000000000000000000000,
|
|
100000000000000000100000000000000000100000000000,
|
|
500000000000000000000000000000000000000000000008,
|
|
000000000000000000000000000000000000000000000000,
|
|
000000000000100000000000000000000000100000000000,
|
|
000000000000100000000000100000000000100000000000,
|
|
000000000000200000000000000000000000200000000000,
|
|
000000000000200000000000000000000000200000000000,
|
|
000000000000000000000000100000000000000000300000,
|
|
000000000000000000000000000000000000000000000000,
|
|
100000000000000000000000100000000000000000000000,
|
|
100000000000100000000000100000000000000000000000,
|
|
100000000000000000000000100000000000000000000000,
|
|
200000000000200000000000200000000000000000000000,
|
|
100000000000000000000000100000000000000000000000,
|
|
100000000000100000000000100000000000000000000000,
|
|
100000000000000000100000000000000000000000300000,
|
|
000000000000000000000000000000000000000000000000,
|
|
100000000000000000000000100000000000000000000000,
|
|
100000000000100000000000100000000000000000000000,
|
|
100000000000000000000000100000000000000000000000,
|
|
200000000000200000000000200000000000000000000000,
|
|
100000000000000000000000100000000000000000000000,
|
|
100000000000100000000000100000000000000000000000,
|
|
100000000000000000100000000000000000000000300000,
|
|
000000000000000000000000000000100000000000100000,
|
|
000000000000000000000000000000200000000000200000,
|
|
000000000000000000000000000000000000000000000000,
|
|
100000000000100000000000100000000000000000300000,
|
|
000000000000000000000000000000100000000000100000,
|
|
000000000000000000000000000000200000000000200000,
|
|
000000000000000000000000000000000000000000000000,
|
|
100000000000100000000000100000000000100000000000,
|
|
100000000000000000000000100000000000100000000000,
|
|
100000000000000000000000100000000000000000000000,
|
|
100000000000000000300000000000000000000000000000,
|
|
100000000000100000000000100000000000000000000000,
|
|
200000000000200000000000200000000000000000000000,
|
|
100000000000000000000000100000000000000000000000,
|
|
100000000000000000300000000000000000000000000000,
|
|
100000000000000000100000000000000000100000000000,
|
|
500000000000000000000000000000000008000000000000,
|
|
100000000000000000000000100000000000000000000000,
|
|
100000000000000000300000000000000000000000000000,
|
|
100000000000100000000000100000000000000000000000,
|
|
200000000000200000000000200000000000000000000000,
|
|
100000000000000000000000100000000000000000000000,
|
|
100000000000000000400000000000000000000000000000,
|
|
100000000000000000100000000000000000100000000000,
|
|
500000000000000000000000000000000000000000000008,
|
|
|
|
|
|
#END
|
|
|