Files
ESE-ja-fix/01 Pop/Densetsu no Otoko ~Viva Guts~/Densetsu no Otoko ~Viva Guts~.tja
2023-06-15 19:05:10 -05:00

1224 lines
29 KiB
Plaintext
Raw Permalink Blame History

This file contains ambiguous Unicode characters
This file contains Unicode characters that might be confused with other characters. If you think that this is intentional, you can safely ignore this warning. Use the Escape button to reveal them.
//TJADB Project
TITLE:Densetsu no Otoko ~Viva Guts~
TITLEJA:伝説の男 ~ビバ・ガッツ~
SUBTITLE:--Hanawa
BPM:105.49
WAVE:Densetsu no Otoko ~Viva Guts~.ogg
OFFSET:-5.614
DEMOSTART:81.436
COURSE:Oni
LEVEL:6
BALLOON:14,22
#START
#BPMCHANGE 105.49
100000000000000000000000100000000000000000000000,
#BPMCHANGE 90.87
100000000000000010000010000000000000000000000000,
#BPMCHANGE 82.87
7008,
#MEASURE 3/4
#BPMCHANGE 78.44
070,
#MEASURE 3/8
#BPMCHANGE 83.03
,
#MEASURE 4/4
#BPMCHANGE 185.9
08,
#GOGOSTART
#BPMCHANGE 187.5
100000000000100000000000100000000000100000000000,
#BPMCHANGE 189.13
200000000000200000000000100000100000200000000000,
#BPMCHANGE 187.5
100000000000100000000000100000000000100000000000,
#BPMCHANGE 188.97
200000000000200000000000100000100000200000000000,
#BPMCHANGE 188.98
000000000000100000000000100000100000100000000000,
#BPMCHANGE 186.05
100000000000100000100000000000100000100000000000,
#BPMCHANGE 190.47
100000000000000000000000100000000000100000000000,
#BPMCHANGE 186.05
100000000000100000100000000000100000100000000000,
#BPMCHANGE 187.35
100000200000100000200000100000200000100000100000,
#BPMCHANGE 187.5
200000000000000000100000000000100000100000000000,
#BPMCHANGE 190.48
000000000000100000000000100000100000100000000000,
#BPMCHANGE 187.5
000000000000300000000000300000000000000000000000,
#BPMCHANGE 188.97
100000000000200000200000100000100000200000100000,
#BPMCHANGE 186.05
000000000000300000000000300000000000000000000000,
#GOGOEND
#BPMCHANGE 188.98
100000000000200000200000000000100000200000000000,
#BPMCHANGE 187.35
100000000000200000000000100000200000200000000000,
#BPMCHANGE 187.94
100000000000200000200000000000100000200000100000,
#BPMCHANGE 187.06
100000000000200000000000100000200000200000000000,
#BPMCHANGE 187.36
100000000000000000000000000000000000100000000000,
#BPMCHANGE 189.27
100000000000200000000000000000100000200000000000,
#BPMCHANGE 185.76
100000000000100000000000100000100000000000100000,
#BPMCHANGE 187.5
100000000000100000000000100000200000100000200000,
#BPMCHANGE 189.13
100000000000000000000000100000000000000000100000,
#BPMCHANGE 192
100000000000100000000000100000100000000000000000,
#BPMCHANGE 187.5
500000000000000000000000000000000000000000000000,
#MEASURE 8/4
#BPMCHANGE 186.26
000000000008000000000000000000000000000000000000
000000000000000000000000000000000000000000000000,
#MEASURE 11/16
#BPMCHANGE 94.233
000000000000000100001000000000000,
#MEASURE 4/4
#BPMCHANGE 187.35
000000000000000000000000000000000000000000000000,
#BPMCHANGE 176.47
300000000000000000000000300000000000000000000000,
#BPMCHANGE 185.91
000000100000100000200000200000000000000000000000,
#BPMCHANGE 187.5
100000000000100000100000000000100000200000000000,
#BPMCHANGE 187.06
100000000000100000100000000000100000200000000000,
#BPMCHANGE 183.48
000000000000100000000000100000000000100000100000,
#BPMCHANGE 189.13
100000000000100000000000100100100000100000000000,
#BPMCHANGE 188.98
100000000000100000000000000000100000100000000000,
#BPMCHANGE 187.5
100000000000100000000000000000100000100000000000,
#BPMCHANGE 185.9
100000000000100000000000100000100000000000100000,
#BPMCHANGE 188.98
100000000000100000000000100000100000100000100000,
#BPMCHANGE 186.04
100000000000000000000000100000000000000000100000,
#BPMCHANGE 187.5
000000000000100000000000100000100000000000000000,
#BPMCHANGE 187.36
500000000000000000000000000000000000000000000000,
#MEASURE 8/4
#BPMCHANGE 188.45
000000000008000000000000000000000000000000000000
000000000000000000000000000000000000000000000000,
#MEASURE 4/4
#BPMCHANGE 92.91
000000000000000000000000100100100000100000000000,
#BPMCHANGE 179.13
000000000000000000000000000000000000000000000000,
#BPMCHANGE 178.97
300000000000000000000000300000000000000000000000,
#BPMCHANGE 188.98
000000100000100000200000200000000000000000000000,
#BPMCHANGE 187.5
100000100000200000100000100000100000200000100000,
#BPMCHANGE 187.35
100000100000200000100000100100100000200000000000,
#BPMCHANGE 186.05
100000100000200000100000100000100000200000100000,
#BPMCHANGE 187.35
100000100000200000100000200200200000200000000000,
#BPMCHANGE 187.5
100000100000200000100000100000100000200000100000,
#BPMCHANGE 188.98
100000100000200000100000100000100000100000000000,
#BPMCHANGE 187.5
100000100000200000100000100000100000200000100000,
#BPMCHANGE 187.35
000000000000200000000000100100100000200000000000,
#BPMCHANGE 186.05
100000000000000000000000000000000000000000000000,
#BPMCHANGE 184.47
100000000000000000100000000000000000000000000000,
#BPMCHANGE 187.36
500000000000000000000000000000000000000000000000,
#MEASURE 8/4
#BPMCHANGE 186.98
000000000008000000000000000000000000000000000000
000000000000000000000000000000000000000000000000,
#MEASURE 4/4
#BPMCHANGE 95.66
000000000000000000000000000010001000000000000000,
#MEASURE 5/4
#BPMCHANGE 92.22
000000000000000000000000000000000001000100000000000000000000,
#MEASURE 4/4
#BPMCHANGE 183.22
000000000000000000000000000000000000000000000000,
#BPMCHANGE 186.91
300000000000000000000000300000000000000000000000,
#BPMCHANGE 183.49
000000100000100000200000200000000000000000000000,
#BPMCHANGE 187.5
100000000000100000100000000000100100100000200000,
#BPMCHANGE 187.35
100000000000100000100000000000100100200000200000,
#BPMCHANGE 186.05
100000000000100000100000000000100100100000200000,
#BPMCHANGE 188.98
100000000000200000200000000000100000200000000000,
#BPMCHANGE 187.5
100000000000100000200000000000200200200000100000,
#BPMCHANGE 187.35
100000000000100000200000000000200200200000200000,
#BPMCHANGE 187.5
100000000000100000100000000000100000100000000000,
#BPMCHANGE 188.98
100000200000100000200000100100100000200000000000,
#BPMCHANGE 189.27
100000000000100000100000000000100100100000100000,
#BPMCHANGE 188.98
100000000000100000100000000000200200200000000000,
#BPMCHANGE 187.5
100000000000100000100000000000100000100000000000,
#BPMCHANGE 187.35
100000000000100000100000100100100000200000200000,
#BPMCHANGE 187.5
100000000000100000100000000000100100200000000000,
100000000000100000100000000000100100200000000000,
#BPMCHANGE 188.98
100000000000100000100000000000100100200000000000,
#BPMCHANGE 185.9
100000000000100000100000000000100100200000000000,
#BPMCHANGE 186.05
600000000000000000000000000000000008000000000000,
#BPMCHANGE 184.47
300000000000000000000000100000100000100000100000,
100000000000000000000000100000000000000000000000,
#BPMCHANGE 187.5
100100100000100000100000100000100000300000000000,
#GOGOSTART
100000000000100000000000100000000000100000000000,
#BPMCHANGE 188.98
100000000000100000000000100100100000200000000000,
#BPMCHANGE 187.35
100000000000100000000000100000000000100000000000,
#BPMCHANGE 189.13
100000000000100000000000100100100000200000000000,
#BPMCHANGE 185.9
100000000000100000200000100000100000200000000000,
#BPMCHANGE 189.13
100000000000100000200000100000200000200000000000,
#BPMCHANGE 188.97
100000000000100000000000100000100000100000100000,
#BPMCHANGE 190.63
000000000000000000000000000000000000000000000000,
#BPMCHANGE 187.5
100000200000100000200000100000200000100000200000,
#BPMCHANGE 187.35
100000000000100000000000100000100000000000100000,
#BPMCHANGE 189.13
000000000000100000000000100000000000100000000000,
#BPMCHANGE 185.9
100100100000000000100000000000100000000000000000,
#BPMCHANGE 184.47
300000000000400000000000300000000000400000000000,
#BPMCHANGE 189.28
100000100000100000000000100000000000000000000000,
#BPMCHANGE 188.98
100000000000100000000000100000000000100000100000,
#BPMCHANGE 188.97
000000100000100000000000100100100000100000100000,
#BPMCHANGE 188.98
300000000000400000000000300000000000400000000000,
#BPMCHANGE 184.47
100000100000100000000000100000000000000000000000,
#BPMCHANGE 192.16
100100100000100000100000100000000000100000000000,
#BPMCHANGE 187.35
000000000000100000100000000000100000200000000000,
#BPMCHANGE 187.5
000000000000300000000000300000000000000000000000,
#BPMCHANGE 187.35
100000000000100000100000000000100000200000000000,
#BPMCHANGE 189.13
000000000000300000000000300000000000000000000000,
#GOGOEND
#END
COURSE:Hard
LEVEL:4
BALLOON:12,20
SCOREINIT:580
SCOREDIFF:100
#START
100000000000000000000000100000000000000000000000,
#BPMCHANGE 102
100000000000000000100000100000000000
#BPMCHANGE 68.5
000000000000,
#BPMCHANGE 83.13
7008,
#MEASURE 3/4
#BPMCHANGE 87.83
070,
#MEASURE 3/8
#BPMCHANGE 82.2
,
#MEASURE 4/4
#BPMCHANGE 188.1
08,
#GOGOSTART
#BPMCHANGE 186.5
100000000000100000000000100000000000100000000000,
#BPMCHANGE 184.9
200000000000200000000000100000000000200000000000,
#BPMCHANGE 186.5
100000000000100000000000100000000000100000000000,
#BPMCHANGE 185.04
200000000000200000000000100000000000200000000000,
000000000000100000000000100000000000000000000000,
#BPMCHANGE 187.96
100000000000100000100000000000100000100000000000,
#BPMCHANGE 183.59
100000000000000000000000100000000000100000000000,
#BPMCHANGE 187.96
100000000000100000100000000000100000100000000000,
#BPMCHANGE 186.5
100000000000100000000000100000000000100000000000,
100000000000000000100000000000100000100000000000,
#BPMCHANGE 183.59
000000000000100000000000100000100000100000000000,
#BPMCHANGE 186.5
000000000000300000000000300000000000000000000000,
#BPMCHANGE 185.04
100000000000100000000000200000200000200000000000,
#BPMCHANGE 187.96
000000000000300000000000300000000000000000000000,
#GOGOEND
#BPMCHANGE 185.04
100000000000100000000000000000100000100000000000,
#BPMCHANGE 186.5
100000000000100000000000000000100000100000000000,
100000000000100000000000100000000000100000100000,
000000000000100000000000100000200000200000000000,
100000000000100000000000000000100000100000000000,
#BPMCHANGE 184.9
100000000000100000000000000000100000100000000000,
#BPMCHANGE 188.1
100000000000100000000000100000000000000000000000,
#BPMCHANGE 186.5
100000000000100000000000100000100000100000100000,
#BPMCHANGE 184.9
100000000000000000000000100000000000000000100000,
#BPMCHANGE 182.13
000000000000100000000000100000000000000000000000,
#BPMCHANGE 186.5
500000000000000000000000000000000000000000000000,
#MEASURE 8/4
#BPMCHANGE 187
000000800000000000000000000000000000000000000000
#BPMCHANGE 188.51
000000000000000000000000000000000000000000000000,
#MEASURE 11/16
#BPMCHANGE 91.77
00000101000,
#MEASURE 4/4
#BPMCHANGE 186.5
000000000000000000000000000000000000000000000000,
#BPMCHANGE 198.3
300000000000000000000000300000000000000000000000,
#BPMCHANGE 187.95
000000100000100000200000200000000000000000000000,
#BPMCHANGE 186.5
100000000000200000000000000000100000200000000000,
#BPMCHANGE 189.42
100000000000200000000000000000100000200000000000,
#BPMCHANGE 187.95
100000000000200000000000000000200000200000000000,
#BPMCHANGE 185.04
100000000000200000000000100000100000200000000000,
100000000000200000000000000000200000100000000000,
#BPMCHANGE 186.5
100000000000200000000000000000200000200000000000,
#BPMCHANGE 187.95
100000000000000000000000100000100000000000100000,
#BPMCHANGE 185.04
100000000000100000000000100000100000100000100000,
#BPMCHANGE 187.95
100000000000000000000000100000000000000000100000,
#BPMCHANGE 186.5
000000000000100000000000100000000000000000000000,
500000000000000000000000000000000000000000000000,
#MEASURE 8/4
#BPMCHANGE 187
000000800000000000000000000000000000000000000000
#BPMCHANGE 184.14
000000000000000000000000000000000000000000000000,
#MEASURE 4/4
#BPMCHANGE 93.08
000000000000000000000000100100100000100000000000,
#BPMCHANGE 195.39
000000000000000000000000000000000000000000000000,
300000000000000000000000300000000000000000000000,
#BPMCHANGE 185.04
000000100000100000200000200000000000000000000000,
#BPMCHANGE 186.5
100000000000200000000000100000000000200000000000,
100000000000200000000000100000100000200000000000,
#BPMCHANGE 187.95
100000000000200000000000100000000000200000000000,
#BPMCHANGE 186.5
100000000000200000000000100000100000100000000000,
100000000000200000000000100000000000200000000000,
#BPMCHANGE 185.04
100000000000200000000000100000100000200000000000,
#BPMCHANGE 186.5
100000000000200000000000100000000000200000000000,
000000000000200000000000100000100000200000000000,
#BPMCHANGE 187.95
100000000000000000000000000000000000000000000000,
#BPMCHANGE 189.56
100000000000000000100000000000000000000000000000,
#BPMCHANGE 186.5
500000000000000000000000000000000000000000000000,
#MEASURE 8/4
#BPMCHANGE 187
000000000800000000000000000000000000000000000000
#BPMCHANGE 187.06
000000000000000000000000000000000000000000000000,
#MEASURE 4/4
#BPMCHANGE 90.42
000000000000000000000000000010001000000000000000,
#MEASURE 5/4
#BPMCHANGE 93.81
000000000000000000000000000000000001000100000000000000000000,
#MEASURE 4/4
#BPMCHANGE 190.87
000000000000000000000000000000000000000000000000,
#BPMCHANGE 189.56
300000000000000000000000300000000000000000000000,
#BPMCHANGE 187.95
000000100000100000200000200000000000000000000000,
#BPMCHANGE 186.5
100000000000100000100000000000000000200000000000,
100000000000100000100000000000000000200000000000,
#BPMCHANGE 187.95
100000000000100000200000000000000000200000000000,
#BPMCHANGE 185.04
100000000000200000200000000000000000200000000000,
#BPMCHANGE 186.5
100000000000100000200000000000000000200000000000,
100000000000200000200000000000200000100000000000,
100000000000100000100000000000100000100000000000,
#BPMCHANGE 185.04
100000200000100000200000100000100000200000000000,
#BPMCHANGE 184.9
100000000000100000100000000000100000100000000000,
#BPMCHANGE 185.04
100000000000100000100000000000200000200000000000,
#BPMCHANGE 186.5
100000000000100000100000000000100000100000000000,
100000000000100000100000000000000000200000000000,
100000000000100000100000000000100000200000000000,
#BPMCHANGE 185.04
100000000000100000100000000000100000200000000000,
#BPMCHANGE 186.5
100000000000100000100000000000100000200000000000,
#BPMCHANGE 187.95
100000000000100000100000000000100000200000000000,
600000000000000000000000000000800000000000000000,
#BPMCHANGE 189.56
300000000000000000000000100000100000100000100000,
#BPMCHANGE 189.42
100000000000000000000000100000000000000000000000,
#BPMCHANGE 186.5
100000000000000000100000000000100000100000000000,
#GOGOSTART
100000000000100000000000100000000000100000000000,
#BPMCHANGE 185.04
100000000000100000000000100000100000200000000000,
#BPMCHANGE 186.5
100000000000100000000000100000000000100000000000,
#BPMCHANGE 185.04
100000000000100000000000100000100000200000000000,
#BPMCHANGE 187.95
000000000000100000000000100000000000000000000000,
#BPMCHANGE 185.04
100000000000100000100000000000100000100000000000,
100000000000100000000000100000100000100000100000,
#BPMCHANGE 183.44
000000000000000000000000000000000000000000000000,
#BPMCHANGE 186.5
100000200000100000200000100000200000100000200000,
100000000000100000000000100000100000000000100000,
#BPMCHANGE 185.04
100000000000100000000000100000000000100000000000,
#BPMCHANGE 187.95
100000100000000000100000000000100000000000000000,
#BPMCHANGE 189.56
300000000000400000000000300000000000400000000000,
#BPMCHANGE 184.9
100000100000100000000000100000000000000000000000,
#BPMCHANGE 185.04
100000000000100000000000100000000000100000100000,
000000100000100000000000100000100000100000000000,
#BPMCHANGE 186.5
300000000000400000000000300000000000400000000000,
#BPMCHANGE 187.95
100000100000100000000000100000000000000000000000,
#BPMCHANGE 182.13
100000000000100000000000100000000000100000000000,
#BPMCHANGE 186.5
000000000000100000100000000000100000200000000000,
000000000000300000000000300000000000000000000000,
100000000000100000100000000000100000200000000000,
#BPMCHANGE 185.04
000000000000300000000000300000000000000000000000,
#END
COURSE:Normal
LEVEL:5
BALLOON:10,18
SCOREINIT:580
SCOREDIFF:150
#START
100000000000000000000000100000000000000000000000,
#BPMCHANGE 102
100000000000000000100000100000000000
#BPMCHANGE 68.5
000000000000,
#BPMCHANGE 83.13
700000000000000000000000000000000800000000000000,
#MEASURE 3/4
#BPMCHANGE 87.83
000000000000700000000000000000000000,
#MEASURE 3/8
#BPMCHANGE 82.2
000000000000000000,
#MEASURE 4/4
#BPMCHANGE 188.1
000000000000000000000000000000000000000800000000,
#GOGOSTART
#BPMCHANGE 186.5
100000000000100000000000100000000000100000000000,
#BPMCHANGE 184.9
200000000000200000000000200000000000200000000000,
#BPMCHANGE 186.5
100000000000100000000000100000000000100000000000,
#BPMCHANGE 185.04
200000000000200000000000200000000000200000000000,
000000000000100000000000100000000000000000000000,
#BPMCHANGE 187.56
100000000000000000100000000000100000100000000000,
#BPMCHANGE 183.59
100000000000000000000000100000000000100000000000,
#BPMCHANGE 187.96
100000000000000000000000000000000000000000000000,
#BPMCHANGE 186.5
100000000000100000000000100000000000100000000000,
100000000000000000100000000000100000100000000000,
#BPMCHANGE 183.59
000000000000100000000000100000100000100000000000,
#BPMCHANGE 186.5
000000000000300000000000300000000000000000000000,
#BPMCHANGE 185.04
100000000000100000000000100000100000100000000000,
#BPMCHANGE 187.96
000000000000300000000000300000000000000000000000,
#GOGOEND
#BPMCHANGE 185.04
100000000000000000000000000000000000000000000000,
#BPMCHANGE 186.5
100000000000100000000000100000000000000000000000,
100000000000000000000000100000000000000000000000,
100000000000000000000000000000000000000000000000,
100000000000000000000000000000000000000000000000,
#BPMCHANGE 184.9
100000000000000000000000000000000000100000000000,
#BPMCHANGE 188.1
100000000000100000000000100000100000000000100000,
#BPMCHANGE 186.5
100000000000000000000000000000000000000000000000,
#BPMCHANGE 184.9
000000000000000000000000100000000000000000100000,
#BPMCHANGE 182.13
000000000000100000000000000000000000000000000000,
#BPMCHANGE 186.5
500000000000000000000000000000000000000000000000,
#MEASURE 8/4
#BPMCHANGE 187
000000800000000000000000000000000000000000000000
#BPMCHANGE 188.51
000000000000000000000000000000000000000000000000,
#MEASURE 11/16
#BPMCHANGE 91.77
00000101000,
#MEASURE 4/4
#BPMCHANGE 186.5
000000000000000000000000000000000000000000000000,
#BPMCHANGE 198.3
300000000000000000000000300000000000000000000000,
#BPMCHANGE 187.95
000000100000100000100000100000000000000000000000,
#BPMCHANGE 186.5
100000000000000000000000100000000000000000000000,
#BPMCHANGE 189.42
100000000000100000000000000000000000100000000000,
#BPMCHANGE 187.95
000000000000100000000000100000000000100000100000,
#BPMCHANGE 185.04
100000000000000000000000000000000000000000000000,
100000000000000000000000000000000000000000000000,
#BPMCHANGE 186.5
100000000000000000000000000000000000100000000000,
#BPMCHANGE 187.5
100000000000100000000000100000100000000000100000,
#BPMCHANGE 185.04
100000000000000000000000000000000000000000000000,
#BPMCHANGE 187.95
000000000000000000000000100000000000000000100000,
#BPMCHANGE 186.5
000000000000100000000000000000000000000000000000,
500000000000000000000000000000000000000000000000,
#MEASURE 8/4
#BPMCHANGE 187
000000800000000000000000000000000000000000000000
#BPMCHANGE 184.14
000000000000000000000000000000000000000000000000,
#MEASURE 4/4
#BPMCHANGE 93.08
000000000000000000000000100000100000100000000000,
#BPMCHANGE 195.39
000000000000000000000000000000000000000000000000,
300000000000000000000000300000000000000000000000,
#BPMCHANGE 185.04
000000100000100000100000100000000000000000000000,
#BPMCHANGE 186.5
100000000000100000000000000000000000200000000000,
100000000000100000000000000000000000200000000000,
#BPMCHANGE 187.95
100000000000100000000000000000000000100000000000,
#BPMCHANGE 186.5
100000000000100000000000000000000000000000000000,
200000000000200000000000000000000000200000000000,
#BPMCHANGE 185.04
200000000000200000000000000000000000200000000000,
#BPMCHANGE 186.5
100000000000100000000000000000000000200000000000,
100000000000000000000000000000000000000000000000,
#BPMCHANGE 187.95
100000000000000000000000000000000000000000000000,
#BPMCHANGE 189.56
100000000000000000100000000000000000000000000000,
#BPMCHANGE 186.5
500000000000000000000000000000000000000000000000,
#MEASURE 8/4
#BPMCHANGE 187
000000000800000000000000000000000000000000000000
#BPMCHANGE 187.06
000000000000000000000000000000000000000000000000,
#MEASURE 4/4
#BPMCHANGE 90.42
000000000000000000000000000010001000000000000000,
#MEASURE 5/4
#BPMCHANGE 93.81
000000000000000000000000000000000001000100000000000000000000,
#MEASURE 4/4
#BPMCHANGE 190.87
000000000000000000000000000000000000000000000000,
#BPMCHANGE 189.56
300000000000000000000000300000000000000000000000,
#BPMCHANGE 187.95
000000100000100000100000100000000000000000000000,
#BPMCHANGE 186.5
100000000000100000100000000000000000100000000000,
100000000000100000100000000000000000100000000000,
#BPMCHANGE 187.95
200000000000200000200000000000000000200000000000,
#BPMCHANGE 185.04
200000000000200000200000000000000000000000000000,
#BPMCHANGE 186.5
100000000000100000100000000000000000200000000000,
100000000000100000100000000000000000200000000000,
100000000000100000100000000000000000000000000000,
#BPMCHANGE 185.04
100000000000200000000000100000000000200000000000,
#BPMCHANGE 184.9
100000000000100000100000000000000000200000000000,
#BPMCHANGE 185.04
100000000000100000100000000000000000200000000000,
#BPMCHANGE 186.5
100000000000100000100000000000000000200000000000,
100000000000100000100000000000000000000000000000,
100000000000100000100000000000000000100000000000,
#BPMCHANGE 185.04
100000000000100000100000000000000000100000000000,
#BPMCHANGE 186.5
100000000000100000100000000000000000100000000000,
#BPMCHANGE 187.95
100000000000100000100000000000000000200000000000,
600000000000000000000000000000800000000000000000,
#BPMCHANGE 189.56
300000000000000000000000100000000000000000000000,
#BPMCHANGE 189.42
100000000000000000000000000000000000000000000000,
#BPMCHANGE 186.5
100000000000000000100000000000000000000000000000,
#GOGOSTART
100000000000100000000000100000000000100000000000,
#BPMCHANGE 185.04
200000000000200000000000200000000000200000000000,
#BPMCHANGE 186.5
100000000000100000000000100000000000100000000000,
#BPMCHANGE 185.04
200000000000200000000000200000000000200000000000,
#BPMCHANGE 187.95
000000000000100000000000100000000000000000000000,
#BPMCHANGE 185.04
100000000000100000000000000000100000000000000000,
100000000000100000000000100000000000100000000000,
#BPMCHANGE 183.44
000000000000000000000000000000000000000000000000,
#BPMCHANGE 186.5
100000000000100000000000000000000000100000000000,
100000000000100000000000100000000000000000100000,
#BPMCHANGE 185.04
000000000000000000000000000000000000000000000000,
#BPMCHANGE 187.95
100000100000000000100000000000100000000000000000,
#BPMCHANGE 189.56
300000000000300000000000300000000000300000000000,
#BPMCHANGE 184.9
100000100000100000000000100000000000000000000000,
#BPMCHANGE 185.04
100000000000100000000000100000000000100000000000,
000000000000000000000000000000000000000000000000,
#BPMCHANGE 186.5
300000000000300000000000300000000000300000000000,
#BPMCHANGE 187.95
100000100000100000000000100000000000000000000000,
#BPMCHANGE 182.13
100000000000100000000000100000000000100000000000,
#BPMCHANGE 186.5
000000000000000000000000000000000000200000000000,
000000000000300000000000300000000000000000000000,
000000000000000000000000000000000000200000000000,
#BPMCHANGE 185.04
000000000000300000000000300000000000000000000000,
#END
COURSE:Easy
LEVEL:5
STYLE:Double
BALLOON:10,18
SCOREINIT:630
SCOREDIFF:170
#START P1
11,
100110
#BPMCHANGE 68.5
00,
#BPMCHANGE 83.13
7008,
#MEASURE 3/4
#BPMCHANGE 87.83
070,
#MEASURE 3/8
#BPMCHANGE 82.2
,
#MEASURE 4/4
#BPMCHANGE 188.1
08,
#GOGOSTART
#BPMCHANGE 186.5
1111,
#BPMCHANGE 184.9
2222,
#BPMCHANGE 186.5
1111,
#BPMCHANGE 185.04
2222,
0110,
#BPMCHANGE 187.96
10010110,
#BPMCHANGE 183.59
1011,
#BPMCHANGE 187.96
1,
#BPMCHANGE 186.5
1111,
10010110,
#BPMCHANGE 183.59
00101110,
#BPMCHANGE 186.5
0330,
#BPMCHANGE 185.04
10101110,
#BPMCHANGE 187.96
0330,
#GOGOEND
#BPMCHANGE 185.04
1,
#BPMCHANGE 186.5
1110,
11,
1,
1,
#BPMCHANGE 184.9
1001,
#BPMCHANGE 188.1
10101101,
#BPMCHANGE 186.5
1,
#BPMCHANGE 184.9
00001001,
#BPMCHANGE 182.13
0100,
#BPMCHANGE 186.5
5,
#MEASURE 8/4
#BPMCHANGE 187
000000000008000000000000000000000000000000000000
#BPMCHANGE 188.51
000000000000000000000000000000000000000000000000,
#MEASURE 11/16
#BPMCHANGE 91.77
00000101000,
#MEASURE 4/4
#BPMCHANGE 186.5
,
#BPMCHANGE 198.3
33,
#BPMCHANGE 187.95
01111000,
#BPMCHANGE 186.5
11,
#BPMCHANGE 189.42
1101,
#BPMCHANGE 187.95
00101011,
#BPMCHANGE 185.04
1,
1,
#BPMCHANGE 186.5
1001,
#BPMCHANGE 187.95
10101101,
#BPMCHANGE 185.04
1,
#BPMCHANGE 187.95
000010001,
#BPMCHANGE 186.5
0100,
5,
#MEASURE 8/4
#BPMCHANGE 187
000000000008000000000000000000000000000000000000
#BPMCHANGE 187.14
000000000000000000000000000000000000000000000000,
#MEASURE 4/4
#BPMCHANGE 93.08
00001110,
#BPMCHANGE 195.39
,
33,
#BPMCHANGE 185.04
01111000,
#BPMCHANGE 186.5
1102,
1102,
#BPMCHANGE 187.95
1101,
#BPMCHANGE 186.5
1100,
2202,
#BPMCHANGE 185.04
2202,
#BPMCHANGE 186.5
1102,
1,
#BPMCHANGE 187.95
1,
#BPMCHANGE 189.56
10010000,
#BPMCHANGE 186.5
5,
#MEASURE 8/4
#BPMCHANGE 187
000000000008000000000000000000000000000000000000
#BPMCHANGE 187.06
000000000000000000000000000000000000000000000000,
#MEASURE 4/4
#BPMCHANGE 90.42
000000011000,
#MEASURE 5/4
#BPMCHANGE 93.81
000000000000000000000000000000000001000100000000000000000000,
#MEASURE 4/4
#BPMCHANGE 190.87
,
#BPMCHANGE 189.56
33,
#BPMCHANGE 187.95
01111000,
#BPMCHANGE 186.5
10110010,
10110010,
#BPMCHANGE 187.95
20220020,
#BPMCHANGE 185.04
20220000,
#BPMCHANGE 186.5
10110020,
10110020,
10110000,
#BPMCHANGE 185.04
1212,
#BPMCHANGE 184.9
10110020,
#BPMCHANGE 185.04
10110020,
#BPMCHANGE 186.5
10110020,
10110000,
10110010,
#BPMCHANGE 185.04
10110010,
#BPMCHANGE 186.5
10110010,
#BPMCHANGE 187.95
10110020,
600000000000000000000000000000000008000000000000,
#BPMCHANGE 189.56
31,
#BPMCHANGE 189.42
1,
#BPMCHANGE 186.5
10010000,
#GOGOSTART
1111,
#BPMCHANGE 185.04
2222,
#BPMCHANGE 186.5
1111,
#BPMCHANGE 185.04
2222,
#BPMCHANGE 187.95
0110,
#BPMCHANGE 185.04
10100100,
1111,
#BPMCHANGE 183.44
,
#BPMCHANGE 186.5
1101,
10101001,
#BPMCHANGE 185.04
,
#BPMCHANGE 187.95
11010100,
#BPMCHANGE 189.56
3333,
#BPMCHANGE 184.9
11101000,
#BPMCHANGE 185.04
1111,
,
#BPMCHANGE 186.5
3333,
#BPMCHANGE 187.95
11101000,
#BPMCHANGE 182.13
1111,
#BPMCHANGE 186.5
0002,
0330,
0002,
#BPMCHANGE 185.04
0330,
#GOGOEND
#END
#START P2
,
000000
#BPMCHANGE 68.5
00,
#BPMCHANGE 83.13
7008,
#MEASURE 3/4
#BPMCHANGE 87.83
070,
#MEASURE 3/8
#BPMCHANGE 82.2
,
#MEASURE 4/4
#BPMCHANGE 188.1
08,
#GOGOSTART
#BPMCHANGE 186.5
1111,
#BPMCHANGE 184.9
,
#BPMCHANGE 186.5
1111,
#BPMCHANGE 185.04
0222,
0110,
#BPMCHANGE 187.96
1,
#BPMCHANGE 183.59
1011,
#BPMCHANGE 187.96
1,
#BPMCHANGE 186.5
1111,
1011,
#BPMCHANGE 183.59
0100,
#BPMCHANGE 186.5
0330,
#BPMCHANGE 185.04
1101,
#BPMCHANGE 187.96
0330,
#GOGOEND
#BPMCHANGE 185.04
1,
#BPMCHANGE 186.5
0110,
1011,
1,
1,
#BPMCHANGE 184.9
1001,
#BPMCHANGE 188.1
11,
#BPMCHANGE 186.5
1,
#BPMCHANGE 184.9
00001001,
#BPMCHANGE 182.13
0100,
#BPMCHANGE 186.5
5,
#MEASURE 8/4
#BPMCHANGE 187
000000000008000000000000000000000000000000000000
#BPMCHANGE 188.51
000000000000000000000000000000000000000000000000,
#MEASURE 11/16
#BPMCHANGE 91.77
00000101000,
#MEASURE 4/4
#BPMCHANGE 186.5
,
#BPMCHANGE 198.3
33,
#BPMCHANGE 187.95
,
#BPMCHANGE 186.5
1,
#BPMCHANGE 189.42
1100,
#BPMCHANGE 187.95
1011,
#BPMCHANGE 185.04
1,
1,
#BPMCHANGE 186.5
1001,
#BPMCHANGE 187.95
11,
#BPMCHANGE 185.04
1,
#BPMCHANGE 187.95
00001001,
#BPMCHANGE 186.5
0100,
5,
#MEASURE 8/4
#BPMCHANGE 187
000000000008000000000000000000000000000000000000
#BPMCHANGE 184.14
000000000000000000000000000000000000000000000000,
#MEASURE 4/4
#BPMCHANGE 93.08
00001110,
#BPMCHANGE 195.39
,
33,
#BPMCHANGE 185.04
,
#BPMCHANGE 186.5
1100,
1100,
#BPMCHANGE 185.04
1100,
#BPMCHANGE 186.5
2200,
1100,
#BPMCHANGE 187.95
1100,
#BPMCHANGE 186.5
1110,
1,
#BPMCHANGE 187.95
1,
#BPMCHANGE 189.56
1,
#BPMCHANGE 186.5
5,
#MEASURE 8/4
#BPMCHANGE 187
000000000008000000000000000000000000000000000000
#BPMCHANGE 187.06
000000000000000000000000000000000000000000000000,
#MEASURE 4/4
#BPMCHANGE 90.42
000000011000,
#MEASURE 5/4
#BPMCHANGE 93.81
000000000000000000000000000000000001000100000000000000000000,
#MEASURE 4/4
#BPMCHANGE 190.87
,
#BPMCHANGE 189.56
33,
#BPMCHANGE 187.95
01111000,
#BPMCHANGE 186.5
10010000,
10010000,
#BPMCHANGE 187.95
20020000,
#BPMCHANGE 185.04
20020000,
#BPMCHANGE 186.5
10010000,
20020000,
10010000,
#BPMCHANGE 185.04
1111,
#BPMCHANGE 184.9
10010000,
#BPMCHANGE 185.04
10010000,
#BPMCHANGE 186.5
10010000,
10010000,
10010010,
#BPMCHANGE 185.04
10010010,
#BPMCHANGE 186.5
10010010,
#BPMCHANGE 187.95
10010000,
600000000000000000000000000000000008000000000000,
#BPMCHANGE 189.56
31,
#BPMCHANGE 189.42
1,
#BPMCHANGE 186.5
30030000,
#GOGOSTART
1111,
#BPMCHANGE 185.04
,
#BPMCHANGE 186.5
1111,
#BPMCHANGE 185.04
0222,
#BPMCHANGE 187.95
0110,
#BPMCHANGE 185.04
10100100,
11,
#BPMCHANGE 183.44
,
#BPMCHANGE 186.5
1101,
10101001,
#BPMCHANGE 185.04
,
#BPMCHANGE 187.95
10010100,
#BPMCHANGE 189.56
33,
#BPMCHANGE 184.9
1110,
1111,
#BPMCHANGE 185.04
,
33,
#BPMCHANGE 186.5
1110,
#BPMCHANGE 187.95
1111,
#BPMCHANGE 182.13
0002,
#BPMCHANGE 186.5
0330,
0002,
#BPMCHANGE 185.04
0330,
#GOGOEND
#END