forked from ESE/ESE
407 lines
7.3 KiB
Plaintext
407 lines
7.3 KiB
Plaintext
//TJADB Project
|
|
TITLE:FUNKTASTIC
|
|
TITLEJA:FUNKASTIC
|
|
SUBTITLE:--RIP SLYME
|
|
BPM:125
|
|
WAVE:FUNKTASTIC.ogg
|
|
OFFSET:-3.844
|
|
DEMOSTART:30.723
|
|
|
|
COURSE:Oni
|
|
LEVEL:7
|
|
BALLOON:30,10,12,14,16,5
|
|
SCOREINIT:590
|
|
SCOREDIFF:130
|
|
|
|
|
|
#START
|
|
|
|
|
|
#GOGOSTART
|
|
700000000000000000000000000000000000000000000000,
|
|
000000000000000000000000000000000000800000000000,
|
|
|
|
#GOGOEND
|
|
200000000200000000100000000000100000000000100000,
|
|
200000000200000000100000200000100000200000000000,
|
|
200000000200000000100000000000100000000000100000,
|
|
200000000200000000100000100000400000400000000000,
|
|
100000000100100000100000200000100000000000100000,
|
|
100000000100100000100000200000100000200000000000,
|
|
100000000100100000100000200000100000000000100000,
|
|
200000000200200000100000100000400000400000000000,
|
|
100000000100200000100100100000100000200000100000,
|
|
100000000100200000100100100000100000200000000000,
|
|
100000000100200000100100100000100000200000100000,
|
|
#BPMCHANGE 125.5
|
|
200000000200200000100000100000400000000000000000,
|
|
|
|
#GOGOSTART
|
|
#BPMCHANGE 125
|
|
100000200000200000100100200000200000100000200200,
|
|
100000200100200000100200200000300000300000300000,
|
|
100000200000200000100100200000200000100000200200,
|
|
100000200200200000100200100000300000400000000000,
|
|
100000200000200000100100200000200000100000200200,
|
|
100000200100200000100200200000300000300000300000,
|
|
100000200000200000100100200000200000100000200200,
|
|
100000200200200000100200100000300000400000000000,
|
|
|
|
#GOGOEND
|
|
#BPMCHANGE 124
|
|
#SCROLL 2
|
|
700000000000000000000000000000000800000000000000,
|
|
#BPMCHANGE 125
|
|
#SCROLL 2.5
|
|
700000000000000000000000000000000800000000000000,
|
|
#SCROLL 3
|
|
700000000000000000000000000000000800000000000000,
|
|
#SCROLL 3.5
|
|
700000000000000000000000000000000800000000000000,
|
|
#SCROLL 1
|
|
100000200100000000000000100000200100000000000000,
|
|
100000200100000100100000100000200100000000000000,
|
|
100000200100000000000000100000200100000000000000,
|
|
#BPMCHANGE 126.02
|
|
100000200100000200100000200100100000400000000000,
|
|
#BPMCHANGE 125
|
|
100000100100200000100100000100100000200000000000,
|
|
100000100000200000100100000100100000300000000000,
|
|
100000100100200000100100000100100000200000000000,
|
|
100000100000200000100100200100100000000000200000,
|
|
100000100100200000100100000100100000200000000000,
|
|
100000100000200000100100000100100000300000000000,
|
|
100000100100200000100100000100100000200000000000,
|
|
100200200200100200200200100000400000300000000000,
|
|
100000100100200000000100200000100000100000200200,
|
|
100000100000200000200200100000100100100000200200,
|
|
100000100100200000000100200000100000100000200200,
|
|
200000000100200000100000100000400000000000000000,
|
|
100000000100200000200100200000100000200000200200,
|
|
100200100000200000200100200000400000300000000000,
|
|
100000000100200000200100200000100000200000200200,
|
|
100200100000200000200100200000400000300000400000,
|
|
100000000100200000200100200000100000200000200200,
|
|
100200100000200000200100200000400000300000000000,
|
|
100000000100200000200100200000100000200000000000,
|
|
100200200200100200200200100200100200100200200200,
|
|
100000000100200000200100200000100000200000200200,
|
|
100200100000200000200100200000400000300000300000,
|
|
100000000100200000200100200000100000200000200200,
|
|
100000000100200000100000100000400000400000000000,
|
|
|
|
#GOGOSTART
|
|
100000000000000000100000100000000000100000000000,
|
|
100000000100000000100000400000000000400000000000,
|
|
100000000100000000100000400000000000300000000000,
|
|
100000000100000000100000400000000000400000000000,
|
|
100000000100000000100000300000000000400000000000,
|
|
100000000100000000100000400000000000400000000000,
|
|
100000000100000000100000400000000000300000000000,
|
|
100000000100000000100000400000000000400000000000,
|
|
100000200200000000200000200200200200700000000008,
|
|
|
|
#GOGOEND
|
|
|
|
|
|
#END
|
|
|
|
|
|
COURSE:Hard
|
|
LEVEL:7
|
|
BALLOON:20,7,8,9,10,3
|
|
SCOREINIT:630
|
|
SCOREDIFF:140
|
|
|
|
|
|
#START
|
|
|
|
|
|
#GOGOSTART
|
|
7,
|
|
0008,
|
|
|
|
#GOGOEND
|
|
2002001000100010,
|
|
2002001000102000,
|
|
2002001000100010,
|
|
2002001010404000,
|
|
1001101010001000,
|
|
1001101020002000,
|
|
1001101010001000,
|
|
2002201010404000,
|
|
1001201110001000,
|
|
1001201110102000,
|
|
1001201110001000,
|
|
#BPMCHANGE 125.5
|
|
2002201010400000,
|
|
|
|
#GOGOSTART
|
|
#BPMCHANGE 125
|
|
1010101100003000,
|
|
4340,
|
|
1010101100003000,
|
|
4343,
|
|
1010101200003000,
|
|
4340,
|
|
1010101200003000,
|
|
4343,
|
|
|
|
#GOGOEND
|
|
#BPMCHANGE 124
|
|
#SCROLL 2
|
|
7000000000080000,
|
|
#BPMCHANGE 125
|
|
#SCROLL 2.5
|
|
7000000000080000,
|
|
#SCROLL 3
|
|
7000000000080000,
|
|
#SCROLL 3.5
|
|
7000000000080000,
|
|
#SCROLL 1
|
|
1011000010110000,
|
|
1011000010110000,
|
|
1011000010110000,
|
|
#BPMCHANGE 126.02
|
|
1101101101104000,
|
|
#BPMCHANGE 125
|
|
1000201101102000,
|
|
1010201101103000,
|
|
1000201101102000,
|
|
1010201101100020,
|
|
1000201101102000,
|
|
1010201101103000,
|
|
1000201101102000,
|
|
2220202220403000,
|
|
1010200010111000,
|
|
1010200010111000,
|
|
1010200010111000,
|
|
2002201010400000,
|
|
1010200020201011,
|
|
1010200020201011,
|
|
1010200020201011,
|
|
11203302,
|
|
1010200020201011,
|
|
1010200020201011,
|
|
11202210,
|
|
2220202220403000,
|
|
1010201101101000,
|
|
1110201101102000,
|
|
1010201101101000,
|
|
1110201010404000,
|
|
|
|
#GOGOSTART
|
|
10011010,
|
|
1001001040004000,
|
|
1001001040003000,
|
|
1001001040004000,
|
|
1001001030004000,
|
|
1001001040004000,
|
|
1001001040003000,
|
|
1001001040004000,
|
|
1002002020227008,
|
|
|
|
#GOGOEND
|
|
|
|
|
|
#END
|
|
|
|
|
|
COURSE:Normal
|
|
LEVEL:4
|
|
BALLOON:5,6,7,8,8,9
|
|
SCOREINIT:780
|
|
SCOREDIFF:210
|
|
|
|
|
|
#START
|
|
|
|
|
|
#GOGOSTART
|
|
5,
|
|
000000000000000000000000000000000000000000000008,
|
|
|
|
#GOGOEND
|
|
,
|
|
,
|
|
1200,
|
|
1200,
|
|
3120,
|
|
3120,
|
|
3120,
|
|
500000000000000000000008000000000000000000000000,
|
|
1430,
|
|
1430,
|
|
1430,
|
|
#BPMCHANGE 125.5
|
|
500000000000000000000008000000000000000000000000,
|
|
|
|
#GOGOSTART
|
|
#BPMCHANGE 125
|
|
10011040,
|
|
4340,
|
|
10011030,
|
|
4340,
|
|
10011030,
|
|
4340,
|
|
10011030,
|
|
4340,
|
|
|
|
#GOGOEND
|
|
#BPMCHANGE 124
|
|
7000000000080000,
|
|
#BPMCHANGE 125
|
|
#SCROLL 1.5
|
|
7000000000080000,
|
|
#SCROLL 2
|
|
7000000000080000,
|
|
#SCROLL 2.5
|
|
7000000000080000,
|
|
#SCROLL 1
|
|
11001100,
|
|
11001100,
|
|
11001100,
|
|
#BPMCHANGE 126.02
|
|
500000000000000000000000000000000008000000000000,
|
|
#BPMCHANGE 125
|
|
1202,
|
|
1200,
|
|
1202,
|
|
1200,
|
|
1211,
|
|
1200,
|
|
1211,
|
|
7000000000080000,
|
|
1211,
|
|
1200,
|
|
1211,
|
|
3330,
|
|
10101110,
|
|
1400,
|
|
10101110,
|
|
1400,
|
|
10101110,
|
|
1400,
|
|
10101110,
|
|
500000000000000000000008000000000000000000000000,
|
|
10201110,
|
|
1400,
|
|
10201110,
|
|
3430,
|
|
|
|
#GOGOSTART
|
|
10011000,
|
|
30033000,
|
|
10011000,
|
|
30033000,
|
|
10011000,
|
|
40044000,
|
|
10011000,
|
|
30033000,
|
|
700000000000000000000000000000000000000000000008,
|
|
|
|
#GOGOEND
|
|
|
|
|
|
#END
|
|
|
|
|
|
COURSE:Easy
|
|
LEVEL:4
|
|
BALLOON:4,5,6,7,5,6
|
|
SCOREINIT:510
|
|
SCOREDIFF:140
|
|
|
|
|
|
#START
|
|
|
|
|
|
#GOGOSTART
|
|
5,
|
|
000000000000000000000000000000000000000000000008,
|
|
|
|
#GOGOEND
|
|
,
|
|
,
|
|
2,
|
|
2,
|
|
3100,
|
|
3100,
|
|
3100,
|
|
500000000000000000000008000000000000000000000000,
|
|
1400,
|
|
1400,
|
|
1400,
|
|
#BPMCHANGE 125.5
|
|
500000000000000000000008000000000000000000000000,
|
|
|
|
#GOGOSTART
|
|
#BPMCHANGE 125
|
|
10011030,
|
|
4340,
|
|
10011030,
|
|
4340,
|
|
10011030,
|
|
4340,
|
|
10011030,
|
|
4340,
|
|
|
|
#GOGOEND
|
|
#BPMCHANGE 124
|
|
7000000000080000,
|
|
#BPMCHANGE 125
|
|
#SCROLL 1.5
|
|
7000000000080000,
|
|
#SCROLL 2
|
|
7000000000080000,
|
|
#SCROLL 2.5
|
|
7000000000080000,
|
|
#SCROLL 1
|
|
11001000,
|
|
11001000,
|
|
11001000,
|
|
#BPMCHANGE 126.02
|
|
500000000000000000000000000008000000000000000000,
|
|
#BPMCHANGE 125
|
|
1102,
|
|
1100,
|
|
1102,
|
|
1100,
|
|
1122,
|
|
1100,
|
|
1122,
|
|
7000000000080000,
|
|
1202,
|
|
1100,
|
|
1200,
|
|
3330,
|
|
1113,
|
|
1300,
|
|
1311,
|
|
1300,
|
|
1311,
|
|
1200,
|
|
10301110,
|
|
500000000000000000000008000000000000000000000000,
|
|
10201110,
|
|
10201110,
|
|
10201110,
|
|
3430,
|
|
|
|
#GOGOSTART
|
|
10011000,
|
|
30033000,
|
|
10011000,
|
|
30033000,
|
|
10011000,
|
|
40044000,
|
|
10011000,
|
|
30033030,
|
|
700000000000000000000000000000000000000000000008,
|
|
|
|
#GOGOEND
|
|
|
|
|
|
#END
|
|
|