forked from ESE/ESE
301 lines
4.2 KiB
Plaintext
301 lines
4.2 KiB
Plaintext
//TJADB Project
|
|
TITLE:Flower Song
|
|
TITLEJA:Flower Song
|
|
SUBTITLE:--EXILE
|
|
BPM:110
|
|
WAVE:Flower Song.ogg
|
|
OFFSET:-2.308
|
|
DEMOSTART:75.944
|
|
|
|
COURSE:Oni
|
|
LEVEL:5
|
|
BALLOON:30
|
|
SCOREINIT:890
|
|
SCOREDIFF:265
|
|
|
|
|
|
#START
|
|
|
|
|
|
2002002000002000,
|
|
2002002000202000,
|
|
2002002000002000,
|
|
2002002000202000,
|
|
1002002000202000,
|
|
1002002000202200,
|
|
1002002000202000,
|
|
1002002000201010,
|
|
|
|
#GOGOSTART
|
|
0010201110102011,
|
|
1001201000202010,
|
|
0010201110202011,
|
|
1001201000222050,
|
|
000008000000300000400000000000200200200000500000,
|
|
000008000000300000400000000000000000400000400000,
|
|
07000000,
|
|
00000008,
|
|
|
|
#GOGOEND
|
|
,
|
|
1000200000102100,
|
|
1000200000102100,
|
|
1000200000102100,
|
|
1000201100102000,
|
|
1000200000102100,
|
|
1000200000102100,
|
|
1000200000102100,
|
|
1000201100102000,
|
|
10211121,
|
|
00210121,
|
|
1000201010112010,
|
|
01200220,
|
|
10211121,
|
|
00210121,
|
|
1000201010112010,
|
|
01100336,
|
|
000000000000000000000008000000000000100000100000,
|
|
|
|
#GOGOSTART
|
|
0010201110202011,
|
|
1001201000112010,
|
|
0010201110202011,
|
|
1001201000102020,
|
|
0011201000102050,
|
|
000000000000000000000008000000000000000000300000,
|
|
0011101120030011,
|
|
1003004000001010,
|
|
0010201110202011,
|
|
1001201000112010,
|
|
0010201110202011,
|
|
1001201000222050,
|
|
000008000000300000400000000000200200200000500000,
|
|
000008000000300000400000000000400000400000600000,
|
|
0000801120102011,
|
|
21040303,
|
|
|
|
#GOGOEND
|
|
|
|
|
|
#END
|
|
|
|
|
|
COURSE:Hard
|
|
LEVEL:5
|
|
BALLOON:24
|
|
SCOREINIT:990
|
|
SCOREDIFF:323
|
|
|
|
|
|
#START
|
|
|
|
|
|
20020000,
|
|
20020000,
|
|
20020000,
|
|
20020000,
|
|
2002002000000000,
|
|
2002002000000000,
|
|
2002002000000000,
|
|
2002002000001010,
|
|
|
|
#GOGOSTART
|
|
01201121,
|
|
1001001000202010,
|
|
01201121,
|
|
1001001000101050,
|
|
000008000000300000400000000000100000100000500000,
|
|
000008000000300000400000000000000000300000400000,
|
|
07000000,
|
|
,
|
|
|
|
#GOGOEND
|
|
8,
|
|
10200120,
|
|
10200120,
|
|
10200120,
|
|
500000000000000000000000000008000000000000000000,
|
|
10200120,
|
|
10200120,
|
|
10200120,
|
|
500000000000000000000000000008000000000000000000,
|
|
10201121,
|
|
00210120,
|
|
10201125,
|
|
000000000000000000000008000000000000000000000000,
|
|
10201121,
|
|
00210120,
|
|
10201125,
|
|
000000000000000008000000000000300000300000600000,
|
|
000000000000000000000008000000000000100000100000,
|
|
|
|
#GOGOSTART
|
|
01201121,
|
|
1001001000111010,
|
|
01201121,
|
|
1001001000111010,
|
|
01210115,
|
|
000000000000000000000008000000000000000000300000,
|
|
0030304040030030,
|
|
300000000300000000600000000008000000100000100000,
|
|
01201121,
|
|
1001001000111010,
|
|
01201121,
|
|
1001001000111050,
|
|
000008000000300000400000000000100100100000500000,
|
|
000008000000300000400000000000100100100000600000,
|
|
000000000008000000100000200000100100100000100000,
|
|
21030303,
|
|
|
|
#GOGOEND
|
|
|
|
|
|
#END
|
|
|
|
|
|
COURSE:Normal
|
|
LEVEL:3
|
|
BALLOON:20,7
|
|
SCOREINIT:1160
|
|
SCOREDIFF:523
|
|
|
|
|
|
#START
|
|
|
|
|
|
11,
|
|
1,
|
|
22,
|
|
2,
|
|
1110,
|
|
2220,
|
|
1110,
|
|
500000000000000000000000000008000000000000000000,
|
|
|
|
#GOGOSTART
|
|
1112,
|
|
10010000,
|
|
1112,
|
|
10010000,
|
|
30110000,
|
|
30110000,
|
|
9,
|
|
,
|
|
|
|
#GOGOEND
|
|
8,
|
|
1202,
|
|
1202,
|
|
1202,
|
|
500000000000000000000000000008000000000000000000,
|
|
1202,
|
|
1202,
|
|
1202,
|
|
500000000000000000000000000008000000000000000000,
|
|
1112,
|
|
0202,
|
|
10101025,
|
|
000000000000000000000008000000000000000000000000,
|
|
1112,
|
|
0202,
|
|
10101025,
|
|
000000000000000000000008000000000000000000700000,
|
|
0008,
|
|
|
|
#GOGOSTART
|
|
1122,
|
|
10010000,
|
|
1122,
|
|
10010000,
|
|
300000000000100000100000000000600000000000000008,
|
|
,
|
|
30111010,
|
|
600000000000000000000000000008000000000000000000,
|
|
1122,
|
|
10010000,
|
|
1122,
|
|
10010000,
|
|
30110000,
|
|
30110000,
|
|
30011030,
|
|
30030303,
|
|
|
|
#GOGOEND
|
|
|
|
|
|
#END
|
|
|
|
|
|
COURSE:Easy
|
|
LEVEL:2
|
|
BALLOON:16,5
|
|
SCOREINIT:940
|
|
SCOREDIFF:583
|
|
|
|
|
|
#START
|
|
|
|
|
|
1,
|
|
1,
|
|
2,
|
|
500000000000000000000000000008000000000000000000,
|
|
11,
|
|
22,
|
|
11,
|
|
500000000000000000000000000008000000000000000000,
|
|
|
|
#GOGOSTART
|
|
1110,
|
|
10010000,
|
|
1120,
|
|
10010000,
|
|
30030000,
|
|
30030000,
|
|
9,
|
|
,
|
|
|
|
#GOGOEND
|
|
8,
|
|
11,
|
|
1011,
|
|
11,
|
|
50000800,
|
|
11,
|
|
1011,
|
|
11,
|
|
500000000000000000000000000008000000000000000000,
|
|
1110,
|
|
2,
|
|
1110,
|
|
500000000000000000000000000008000000000000000000,
|
|
1110,
|
|
2,
|
|
1110,
|
|
500000000000000000000008000000000000000000700000,
|
|
0008,
|
|
|
|
#GOGOSTART
|
|
1120,
|
|
10010000,
|
|
2220,
|
|
20020000,
|
|
300000000000000000300000000000600000000000000008,
|
|
,
|
|
3340,
|
|
600000000000000000000000000008000000000000000000,
|
|
1120,
|
|
10010000,
|
|
2220,
|
|
20020000,
|
|
30040000,
|
|
30040000,
|
|
3033,
|
|
300000000000000000600000000000000000000000000008,
|
|
|
|
#GOGOEND
|
|
|
|
|
|
#END
|
|
|