forked from ESE/ESE
308 lines
12 KiB
Plaintext
308 lines
12 KiB
Plaintext
//TJADB Project
|
||
TITLE:Gouseki! Choukami Neiger ~Midaka Omedachi~
|
||
TITLEJA:豪石!超神ネイガー
|
||
SUBTITLE:--Ichiro Mizuki
|
||
SUBTITLEJA:〜見だがおめだぢ〜
|
||
BPM:148
|
||
WAVE:Gouseki! Choukami Neiger ~Midaka Omedachi~.ogg
|
||
OFFSET:-1.884
|
||
DEMOSTART:79.721
|
||
|
||
COURSE:Oni
|
||
LEVEL:7
|
||
BALLOON:8,80
|
||
SCOREINIT:800
|
||
SCOREDIFF:190
|
||
|
||
|
||
#START
|
||
|
||
|
||
100000200000200000100100100000200000200000100000,
|
||
100000200000200000100100100000200000200000100000,
|
||
100000200000200000100100100000200000200000100000,
|
||
100000200000200000100100100000200000200200100100,
|
||
100000000000000000000000000000100000200000200000,
|
||
100000000000100000100100200000000000200000000000,
|
||
300000000000000000000000000000000000300000300000,
|
||
400000000000000000000000000000000000000000000000,
|
||
100000000000000000000000000000100000200000200000,
|
||
100000000000100000100100200000000000200000000000,
|
||
300000000000000000000000000000000000000000400000,
|
||
400000000000000000400000400000000000000000100000,
|
||
000000100000200000100100100000100000200000100100,
|
||
200000100000200000200200200000100000200000100000,
|
||
000000100000200000100100100000100000200000100000,
|
||
100000200000000000200000000000200000000000200000,
|
||
100000000000100000000000100000100100100000200000,
|
||
100000000000100000100000000000100000200000000000,
|
||
100000000000100000000000100000100100100000200000,
|
||
100000200000000000100000200000000000200000000000,
|
||
100000100000200000100100100000100000200000000000,
|
||
100000000000100000000000100000100100200000100000,
|
||
000000100000200000100100100000100000200000100000,
|
||
100000200000000000200000000000200000000000200000,
|
||
100000000000100000000000100000100100100000200000,
|
||
100000000000100000100000000000100000200000000000,
|
||
100000000000100000000000100000100100100000200000,
|
||
100000200000000000100000200000000000200000000000,
|
||
100000100000200000100100100000100000200000000000,
|
||
100000000000100000000000100000100100200000100000,
|
||
000000100000200000100100100000100000200000100000,
|
||
000000100000000000200000000000200000000000200000,
|
||
100000100000200000100100100000100000200000200200,
|
||
100000100000200000100100100000100000200000000000,
|
||
100000100000200000100100100000100000200000000000,
|
||
700000000000000000000000000000000000800000000000,
|
||
100000100000200000100100100000100000200000000000,
|
||
100100100100100000100000200000200200200000100000,
|
||
000000100000200000100100100000100000200000100000,
|
||
000000100000200000100000100000000000200000000000,
|
||
100000100000200000100100100000100000200000200200,
|
||
100000100000200000100100100000100000200000000000,
|
||
100000100100200000100100100000100100200000100100,
|
||
100000100100200000100100100000100100200000000000,
|
||
100000100000200000100100100000100000200000200200,
|
||
100000100000200000100100100000100000200000000000,
|
||
100000100000200000100100100000200200200000200000,
|
||
100100200000100100200000100200200000200200200000,
|
||
|
||
#GOGOSTART
|
||
200200100100100000200200100100000200200000000000,
|
||
200200100100100000200200100100000200200000000000,
|
||
100000100100100000100100100000100100200000000000,
|
||
300000000000300000000000400000000000000000700000,
|
||
000000000000000000000000000000000000000000000000,
|
||
000000000000000000000000000000000000000000000000,
|
||
000000000000000000000000000000000000000000000000,
|
||
000000000000000000000000000000800000000000300000,
|
||
|
||
#GOGOEND
|
||
|
||
|
||
#END
|
||
|
||
|
||
COURSE:Hard
|
||
LEVEL:5
|
||
BALLOON:8,16
|
||
SCOREINIT:870
|
||
SCOREDIFF:230
|
||
|
||
|
||
#START
|
||
|
||
|
||
100000200000200000100000100000200000200000100000,
|
||
100000200000200000100000100000200000200000000000,
|
||
100000200000200000100000100000200000200000100000,
|
||
100000200000200000100000100000200000200000000000,
|
||
300000000000000000000000000000000000000000000000,
|
||
100000000000100000000000200000000000200000000000,
|
||
300000000000000000000000000000000000300000300000,
|
||
400000000000000000000000000000000000000000000000,
|
||
100000000000000000000000000000000000000000000000,
|
||
100000000000100000000000200000000000200000000000,
|
||
300000000000000000000000000000000000000000400000,
|
||
400000000000000000400000400000000000000000100000,
|
||
000000100000200000000000100000000000200000100000,
|
||
200000000000100000200000000000000000100000100000,
|
||
000000100000200000000000100000000000200000100000,
|
||
100000200000000000200000000000200000000000200000,
|
||
100000000000100000000000100000100100100000000000,
|
||
100000000000100000200000000000100000200000000000,
|
||
100000000000100000000000100000100100100000000000,
|
||
100000200000000000100000200000000000200000000000,
|
||
100000000000100000000000100000100100100000000000,
|
||
100000000000100000000000100000100000200000100000,
|
||
000000100000200000000000100000000000200000100000,
|
||
000000200000000000200000000000200000000000200000,
|
||
100000000000100000000000100000100100100000000000,
|
||
100000000000100000200000000000100000200000000000,
|
||
100000000000100000000000100000100100100000000000,
|
||
100000200000000000100000200000000000200000000000,
|
||
100000000000100000000000100000100100100000000000,
|
||
100000000000100000000000100000100000200000100000,
|
||
000000100000200000000000100000000000200000100000,
|
||
000000200000000000200000000000200000000000200000,
|
||
100000000000100000000000100000100000200000000000,
|
||
100000000000100000000000100000200000200000000000,
|
||
100000000000100000000000100000100000100000000000,
|
||
700000000000000000000000000000000800000000000000,
|
||
100000000000100000000000100000100000200000000000,
|
||
100000000000100000000000100000200000000000100000,
|
||
000000100000200000000000100000100000200000100000,
|
||
000000100000200000000000100000000000200000000000,
|
||
100000000000100000000000100000100000200000000000,
|
||
100000000000100000000000100000200000200000000000,
|
||
100000000000200000000000100000100000200000100000,
|
||
000000100000200000000000000000100000200000000000,
|
||
100000000000100000000000100000100000200000000000,
|
||
100000000000100000000000100000200000200000000000,
|
||
100000000000100000000000100000100000200000100000,
|
||
100000200000000000200000000000200000000000200000,
|
||
#GOGOSTART
|
||
300000000000300000000000200000200000200000000000,
|
||
300000000000300000000000200000200000200000000000,
|
||
100000000000100000000000100000100000100000000000,
|
||
300000000000300000000000000000000000000000000000,
|
||
500000000000000000000000000000000000000000000000,
|
||
000000000000000000000800000000000000000000000000,
|
||
700000000000000000000000000000000000000000000000,
|
||
000000000000000000000000000800000000000000300000,
|
||
#GOGOEND
|
||
|
||
|
||
#END
|
||
|
||
|
||
COURSE:Normal
|
||
LEVEL:2
|
||
BALLOON:12
|
||
SCOREINIT:1310
|
||
SCOREDIFF:460
|
||
|
||
|
||
#START
|
||
|
||
|
||
500000000000000000000000800000000000000000000000,
|
||
000000000000000000000000000000000000000000000000,
|
||
500000000000000000000000800000000000000000000000,
|
||
000000000000000000000000000000000000000000000000,
|
||
300000000000000000000000000000000000000000000000,
|
||
100000000000100000000000100000000000100000000000,
|
||
300000000000000000000000000000000000000000000000,
|
||
200000000000000000000000000000000000000000000000,
|
||
300000000000000000000000000000000000000000000000,
|
||
100000000000100000000000100000000000100000000000,
|
||
300000000000000000000000000000000000000000300000,
|
||
000000000000000000000000000000000000000000100000,
|
||
000000000000100000000000100000000000000000000000,
|
||
100000000000000000100000000000000000000000000000,
|
||
100000000000100000000000100000000000000000000000,
|
||
500000000000000000000000800000000000000000000000,
|
||
100000000000100000000000100000000000000000000000,
|
||
100000000000000000000000000000000000000000000000,
|
||
200000000000200000000000200000000000000000000000,
|
||
200000000000000000000000000000000000000000000000,
|
||
100000000000100000000000100000000000000000000000,
|
||
100000000000100000000000100000000000000000500000,
|
||
000000000000000000000000000000800000000000000000,
|
||
000000000000000000000000000000000000000000000000,
|
||
100000000000100000000000100000000000000000000000,
|
||
100000000000000000000000000000000000000000000000,
|
||
200000000000200000000000200000000000000000000000,
|
||
200000000000000000000000000000000000000000000000,
|
||
100000000000100000000000100000000000000000000000,
|
||
100000000000100000000000100000000000000000500000,
|
||
000000000000000000000000000000800000000000000000,
|
||
000000000000000000000000000000000000000000000000,
|
||
100000000000000000000000100000000000000000000000,
|
||
100000000000100000000000100000000000000000000000,
|
||
100000000000000000000000100000000000100000000000,
|
||
000000000000000000000000000000000000000000000000,
|
||
100000000000100000000000100000000000000000000000,
|
||
100000000000100000000000100000000000000000500000,
|
||
000000000000000000000000000000000000000000000000,
|
||
800000000000000000000000000000000000000000000000,
|
||
100000000000100000000000100000000000000000000000,
|
||
100000000000100000000000100000000000000000000000,
|
||
100000000000100000000000100000000000100000000000,
|
||
100000000000000000000000000000000000000000000000,
|
||
100000000000100000000000100000000000000000000000,
|
||
100000000000100000000000100000000000000000000000,
|
||
300000000000300000000000300000000000300000000000,
|
||
300000000000000000000000000000000000000000000000,
|
||
|
||
#GOGOSTART
|
||
300000000000300000000000000000000000000000000000,
|
||
300000000000300000000000000000000000000000000000,
|
||
100000000000100000000000100000000000100000000000,
|
||
300000000000300000000000000000000000000000600000,
|
||
000000000000000000000000000000000000000000000000,
|
||
000000000000000000800000000000000000000000000000,
|
||
9,
|
||
00000008,
|
||
|
||
#GOGOEND
|
||
|
||
|
||
#END
|
||
|
||
|
||
COURSE:Easy
|
||
LEVEL:3
|
||
BALLOON:9
|
||
SCOREINIT:1210
|
||
SCOREDIFF:540
|
||
|
||
|
||
#START
|
||
|
||
|
||
500000000000000000000000800000000000000000000000,
|
||
000000000000000000000000000000000000000000000000,
|
||
500000000000000000000000800000000000000000000000,
|
||
000000000000000000000000000000000000000000000000,
|
||
300000000000000000000000000000000000000000000000,
|
||
100000000000100000000000100000000000000000000000,
|
||
300000000000000000000000000000000000000000000000,
|
||
100000000000000000000000000000000000000000000000,
|
||
300000000000000000000000000000000000000000000000,
|
||
100000000000100000000000100000000000000000000000,
|
||
300000000000000000000000000000000000000000300000,
|
||
000000000000000000000000000000000000000000100000,
|
||
000000000000100000000000100000000000000000000000,
|
||
100000000000000000000000000000000000000000000000,
|
||
100000000000100000000000100000000000000000000000,
|
||
500000000000000000000000800000000000000000000000,
|
||
100000000000000000000000100000000000000000000000,
|
||
100000000000000000000000000000000000000000000000,
|
||
200000000000000000000000200000000000200000000000,
|
||
000000000000000000000000000000000000000000000000,
|
||
100000000000000000000000100000000000000000000000,
|
||
100000000000100000000000100000000000000000500000,
|
||
000000000000000000000000000000000000800000000000,
|
||
000000000000000000000000000000000000000000000000,
|
||
100000000000000000000000100000000000000000000000,
|
||
100000000000000000000000000000000000000000000000,
|
||
200000000000000000000000200000000000200000000000,
|
||
000000000000000000000000000000000000000000000000,
|
||
100000000000000000000000100000000000000000000000,
|
||
100000000000100000000000100000000000000000500000,
|
||
000000000000000000000000000000000000800000000000,
|
||
000000000000000000000000000000000000000000000000,
|
||
100000000000000000000000100000000000000000000000,
|
||
100000000000100000000000100000000000000000000000,
|
||
100000000000000000000000100000000000100000000000,
|
||
000000000000000000000000000000000000000000000000,
|
||
100000000000000000000000100000000000000000000000,
|
||
100000000000100000000000100000000000000000500000,
|
||
000000000000000000000000000000000000000800000000,
|
||
000000000000000000000000000000000000000000000000,
|
||
100000000000000000000000100000000000000000000000,
|
||
100000000000100000000000000000000000000000000000,
|
||
100000000000000000000000100000000000100000000000,
|
||
000000000000000000000000000000000000000000000000,
|
||
100000000000000000000000100000000000000000000000,
|
||
100000000000000000000000100000000000000000000000,
|
||
100000000000100000000000100000000000000000000000,
|
||
100000000000000000000000000000000000000000000000,
|
||
|
||
#GOGOSTART
|
||
300000000000300000000000000000000000000000000000,
|
||
300000000000300000000000000000000000000000000000,
|
||
100000000000100000000000100000000000000000000000,
|
||
300000000000300000000000000000000000000000500000,
|
||
000000000000000000000000000000000000000000000000,
|
||
000000000000000000800000000000000000000000000000,
|
||
9,
|
||
00000008,
|
||
|
||
#GOGOEND
|
||
|
||
|
||
#END
|
||
|