Files
2023-06-15 19:00:23 -05:00

351 lines
14 KiB
Plaintext

//TJADB Project
TITLE:Hamaguri Bomber
TITLEJA:はまぐりボンバー
SUBTITLE:--Yazima Beauty Salon
BPM:156
WAVE:Hamaguri Bomber.ogg
OFFSET:-1.717
DEMOSTART:57.101
COURSE:Oni
LEVEL:7
BALLOON:16,9,9,33
SCOREINIT:640
SCOREDIFF:160
#START
100000200200200000100000000000100000000000100000,
100000200200200000100000000000100000000000100000,
100000200200200000100000000000100000000000100000,
300000000000000000000000000000000000000000000000,
100000200000000000200000100000200200200000200000,
100000200000000000200000100000200200200000200000,
100000200000000000200000100000200200200000200000,
100000200000000000200000000000200200100000200000,
100000200000000000200000100000200200200000200000,
100000200000000000200000100000200200200000200000,
100000000000000000000000100000001000000020000000,
500000000000000000000000000000000008000000000000,
100000000000200000100000000000100000200000000000,
100000000000200000100000000000100100200000000000,
100000000000200000100000000000100000200000000000,
100000000000200000100000000000100100200000000000,
100000000000200000100000000000100000200000000000,
100000000000200000100000000000100100200000000000,
100000000000200000100000000000100100200000100000,
100000000000000000000000100100200200200000000000,
100000000000200000100000100000000000200000000000,
100000000000200000100000100000200200200000200000,
100000000000200000100000100000000000200000000000,
100000000000200000100000100000200200200000200000,
100000000000200000100000100000000000200000000000,
100000000000200000100000100000200200200000200000,
100000200000200000000000100200000200000200200000,
100000000000400000000000000000000000000000000000,
100000100000200000100000000000200200200000000000,
100000000100200000100000000000200200200000000000,
100000100000200000100000000000200200200000000000,
100000000100200000100000000000200200200000000000,
100000100000200000100000100000100100200000200000,
100000100000200000100000200000100100200000200000,
100000000000000000000000300000000300000000400000,
300000000000000000000000000000000000000000000000,
#GOGOSTART
100000000000200000100200100000100000200000100100,
100000000000200000100000000000100100200000200000,
100000100000200000100200100000100000200000100100,
100000200000000000200000100000100000200000200000,
100000000000200000100200100000100000200000100100,
100000000000200000000000100000001000000010000000,
100000000000200000000000100000100000200000100100,
100000000000200000100000100000100100200000000000,
100000000000700000000000000000000000000000000000,
000800000000000000100000000000100000200000100100,
100000100000200000100200100000100000200000100100,
100000200000000000200000100000100000200000200000,
100000000000700000000000000000000000800000000000,
100000000000700000000000000000000000800000000000,
100000000000200000100200100000000100200000100100,
100000000000200000100000000000100000200000000000,
100100200000000000100100200000000000100100200000,
000000100100200000000000100000200200100100200000,
100000000000200000100000100000100100200000200000,
100000000000200000100000000000100000200000000000,
100100200000000000100100200000000000100100200000,
200200100000000000200200100000000000200200100000,
100100700000000000000000000000000000000000000000,
000000000000000000000000000000000000800000000000,
#GOGOEND
100000200000000000200000100000200200200000200000,
100000200000000000200000100000200200200000200000,
100000200000000000200000100000200200200000200000,
100000200000000000200000000000200200100000200000,
100000200000000000200000100000200200200000200000,
100000200000000000200000100000200200200000200000,
300000000000000000000000300000003000000040000000,
600000000000000000000000000000000000000000000008,
#END
COURSE:Hard
LEVEL:5
BALLOON:10,20
SCOREINIT:690
SCOREDIFF:160
#START
100000000000200000100000000000100000000000100000,
100000000000200000100000000000100000000000100000,
100000000000200000100000000000100000000000100000,
300000000000000000000000000000000000000000000000,
100000200000000000200000000000200000100000000000,
100000200000000000200000000000200000100000000000,
100000200000000000200000000000200000100000000000,
100000200000000000200000000000200000100000100000,
100000200000000000200000000000200000100000000000,
100000200000000000200000000000200000100000000000,
100000000000000000000000100000000100000000100000,
500000000000000000000000000800000000000000000000,
100000000000100000100000000000100000200000000000,
100000000000200000100000000000100000200000000000,
100000000000100000100000000000100000200000000000,
100000000000200000100000000000100000200000000000,
100000000000100000100000000000100000200000000000,
100000000000200000100000000000100000200000000000,
100000000000100000100000000000100000200000100000,
100000000000000000000000100000200200200000000000,
100000000000200000100000000000000000200000000000,
100000000000200000100000000000100000200000000000,
100000000000200000100000000000000000200000000000,
100000000000200000100000000000100000200000000000,
100000000000200000100000000000000000200000100000,
100000000000200000000000100000100000200000000000,
500000000000000000000000000000000000000000000800,
000000000000000000000000000000000000000000000000,
100000000000200000100000100000000000200000000000,
100000000000200000100000100000000000200000000000,
100000000000200000100000100000000000200000000000,
100000000000200000100000000000200200200000000000,
100000000000200000100000000000100000200000200000,
100000000000200000100000000000100000200000200000,
100000000000000000000000300000003000000030000000,
300000000000000000000000000000000000000000000000,
#GOGOSTART
100000000000200000100000100000000000200000100100,
100000000000200000100000000000100000200000200000,
100000000000200000100000100000000000200000100100,
100000000000000000000000100000100000200000200000,
100000000000200000100000100000000000200000100100,
100000000000200000000000100000000100000000100000,
100000000000200000100000100000000000200000100100,
100000000000200000100000100000100000200000000000,
100000000000700000000000000000000000000000000000,
000000000800000000100000000000100000200000100000,
100000000000200000100000100000000000200000100100,
100000000000200000000000100000100000200000200000,
100000000000500000000000000000000800000000000000,
100000000000500000000000000000000800000000000000,
100000000000000000000000100000000100000000100000,
500000000000000000000800000000000000000000000000,
300000400000000000300000400000000000300000400000,
000000300000400000000000100000100000200000000000,
100000000000200000100000100000000000200000000000,
100000000000200000100000000000000000200000000000,
100100100000000000200200200000000000100100100000,
100100100000000000200200200000000000100100100000,
700000000000000000000000000000000000000000000000,
000000000000000000000000000000000000000000800000,
#GOGOEND
100000200000000000200000000000200000100000000000,
100000200000000000200000000000200000100000000000,
100000200000000000200000000000200000100000000000,
100000200000000000200000000000200000100000100000,
100000200000000000200000000000200000100000000000,
100000200000000000200000000000200000100000000000,
300000000000000000000000300000003000000030000000,
600000000000000000000000000000000000000000000800,
#END
COURSE:Normal
LEVEL:5
BALLOON:12
SCOREINIT:860
SCOREDIFF:210
#START
100000000000000000100000000000000000000000000000,
100000000000000000100000000000000000000000000000,
100000000000000000100000000000000000000000000000,
100000000000000000000000000000000000000000000000,
100000000000000000000000100000000000100000000000,
100000000000000000000000100000000000100000000000,
100000000000000000000000100000000000100000000000,
100000000000000000000000200000000000000000000000,
100000000000000000000000100000000000100000000000,
100000000000000000000000100000000000100000000000,
100000000000000000000000100000000000000000000000,
500000000000000000000000800000000000000000000000,
100000000000100000100000000000000000000000000000,
100000000000000000000000100000000000100000000000,
100000000000100000100000000000000000000000000000,
100000000000000000000000100000000000100000000000,
100000000000100000100000000000000000000000000000,
100000000000000000000000100000000000100000000000,
100000000000000000000000000000000000100000100000,
100000000000000000000000000000000000000000000000,
100000000000100000100000000000000000200000000000,
100000000000000000000000100000000000100000000000,
100000000000100000100000000000000000200000000000,
100000000000000000000000100000000000100000000000,
100000000000100000100000000000000000200000000000,
100000000000000000000000100000000000100000000000,
500000000000000000000000000000000000000000800000,
000000000000000000000000000000000000000000000000,
100000000000000000100000100000000000200000000000,
100000000000000000100000100000000000000000000000,
100000000000000000100000100000000000200000000000,
100000000000000000100000100000000000000000000000,
100000000000100000000000200000000000100000000000,
100000000000100000000000200000000000100000000000,
100000000000000000000000300000000000000000000000,
300000000000000000000000000000000000000000000000,
#GOGOSTART
300000000000600000000000000000800000000000000000,
300000000000000000000000100000100000100000000000,
100000000000200000000000000000000000100000100000,
100000000000000000000000100000100000100000000000,
300000000000600000000000000000000000000000800000,
000000000000000000000000100000000000000000100000,
100000000000000000000000100000000000000000100000,
100000000000000000000000000000000000000000000000,
300000000000600000000000000000800000000000000000,
300000000000000000000000100000100000100000000000,
100000000000200000000000000000000000100000100000,
100000000000000000000000100000100000100000000000,
300000000000400000000000000000000000000000000000,
300000000000400000000000000000000000000000000000,
100000000000000000000000100000000000100000100000,
100000000000000000000000000000000000000000000000,
300000300000000000300000300000000000300000300000,
000000300000300000000000000000000000000000000000,
100000000000000000100000100000000000100000000000,
100000000000000000000000200000000000000000000000,
300000300000000000300000300000000000300000000000,
400000400000000000400000400000000000400000000000,
700000000000000000000000000000000000000000000000,
000000000000000000000000000000800000000000000000,
#GOGOEND
100000000000000000000000100000000000100000000000,
100000000000000000000000100000000000100000000000,
100000000000000000000000100000000000100000000000,
100000000000000000000000200000000000000000000000,
100000000000000000000000100000000000100000000000,
100000000000000000000000100000000000100000000000,
300000000000000000000000300000000000000000000000,
600000000000000000000000000000000000000000800000,
#END
COURSE:Easy
LEVEL:3
BALLOON:8
SCOREINIT:750
SCOREDIFF:210
#START
100000000000000000000000000000000000000000000000,
100000000000000000000000000000000000000000000000,
100000000000000000000000000000000000000000000000,
100000000000000000000000000000000000000000000000,
100000000000000000000000100000000000000000000000,
100000000000100000000000100000000000000000000000,
100000000000000000000000100000000000000000000000,
100000000000000000000000000000000000000000000000,
100000000000000000000000100000000000000000000000,
100000000000100000000000100000000000000000000000,
100000000000000000000000100000000000000000000000,
200000000000000000000000000000000000000000000000,
100000000000000000000000000000000000000000000000,
100000000000100000000000100000000000000000000000,
100000000000000000000000000000000000000000000000,
100000000000100000000000100000000000000000000000,
100000000000000000000000000000000000000000000000,
100000000000100000000000100000000000000000000000,
100000000000000000000000000000000000100000000000,
100000000000000000000000000000000000000000000000,
100000000000000000000000000000000000000000000000,
100000000000100000000000100000000000000000000000,
100000000000000000000000000000000000000000000000,
100000000000100000000000100000000000000000000000,
100000000000000000000000000000000000000000000000,
100000000000100000000000100000000000000000000000,
500000000000000000000000000000000000000000800000,
000000000000000000000000000000000000000000000000,
100000000000000000000000100000000000000000000000,
200000000000000000000000000000000000000000000000,
100000000000000000000000100000000000000000000000,
200000000000000000000000000000000000000000000000,
100000000000100000000000100000000000000000000000,
100000000000100000000000100000000000000000000000,
100000000000000000000000300000000000000000000000,
300000000000000000000000000000000000000000000000,
#GOGOSTART
300000000000600000000000000000800000000000000000,
300000000000000000000000200000000000000000000000,
100000000000100000000000100000000000100000000000,
100000000000000000000000000000000000000000000000,
300000000000600000000000000000000000000000800000,
000000000000000000000000200000000000000000000000,
100000000000000000000000100000000000100000000000,
100000000000000000000000200000000000000000000000,
300000000000600000000000000000800000000000000000,
300000000000000000000000200000000000000000000000,
100000000000100000000000100000000000100000000000,
100000000000000000000000000000000000000000000000,
300000000000600000000000000000800000000000000000,
300000000000600000000000000000800000000000000000,
100000000000000000000000200000000000000000000000,
100000000000000000000000000000000000000000000000,
300000000000000000300000000000000000300000000000,
000000300000000000000000000000000000000000000000,
100000000000000000000000100000000000100000000000,
100000000000000000000000200000000000000000000000,
300000000000000000300000000000000000300000000000,
300000000000000000300000000000000000300000000000,
9,
,
#GOGOEND
8,
100000000000100000000000100000000000000000000000,
100000000000000000000000100000000000000000000000,
200000000000000000000000000000000000000000000000,
100000000000000000000000100000000000000000000000,
100000000000100000000000100000000000000000000000,
300000000000000000000000300000000000000000000000,
600000000000000000000000000000000000000000800000,
#END