forked from ESE/ESE
308 lines
9.4 KiB
Plaintext
308 lines
9.4 KiB
Plaintext
//TJADB Project
|
|
TITLE:Hana
|
|
TITLEJA:花
|
|
SUBTITLE:--ORANGE RANGE/Ima, Ai ni Yukimasu
|
|
SUBTITLEJA:ORANGE RANGE
|
|
BPM:94.72
|
|
WAVE:Hana.ogg
|
|
OFFSET:-3.937
|
|
DEMOSTART:78.236
|
|
|
|
COURSE:Oni
|
|
LEVEL:7
|
|
SCOREINIT:690
|
|
SCOREDIFF:170
|
|
|
|
|
|
#START
|
|
|
|
|
|
10011010,
|
|
#BPMCHANGE 94.55
|
|
1010101100000000,
|
|
#BPMCHANGE 91.59
|
|
10011010,
|
|
#BPMCHANGE 94.8
|
|
1010101100000102,
|
|
#BPMCHANGE 94.02
|
|
1010010210100011,
|
|
#BPMCHANGE 93.97
|
|
1022102210102000,
|
|
#BPMCHANGE 93.11
|
|
11201120,
|
|
#BPMCHANGE 93.53
|
|
1020101100011010,
|
|
#MEASURE 6/4
|
|
#BPMCHANGE 95.56
|
|
500000000000000000000000000000000008000000000000
|
|
#BPMCHANGE 94
|
|
000000000000000000000000,
|
|
100100200201100100200000,
|
|
100100200201100100200100,
|
|
100100200201100100200000,
|
|
100100200200101000000000,
|
|
101201101201101100200000,
|
|
101201101201101200200000,
|
|
101201101201101101201101,
|
|
101201101201101200200000,
|
|
101201101201101100200000,
|
|
101201101201101200200000,
|
|
101201101201101101201101,
|
|
101201101201101200200000,
|
|
101202101201102100200000,
|
|
101202101201101200200000,
|
|
101202101201102101201100,
|
|
101201101201101200200000,
|
|
101202101201102100200000,
|
|
101202101201101200200000,
|
|
101202101201102101201100,
|
|
101201100101000100200202,
|
|
|
|
#GOGOSTART
|
|
11210122,
|
|
100100200100000100200202,
|
|
11210122,
|
|
100100200100000100201101,
|
|
100100201101100100200101,
|
|
100201100200300300400000,
|
|
11201120,
|
|
100000200000100000100100000000100000200000200020,
|
|
11210122,
|
|
100100200100000100200202,
|
|
11210122,
|
|
100100200100000100201101,
|
|
100100201101100100200101,
|
|
101201101200300300400000,
|
|
11201120,
|
|
1020101100011010,
|
|
500000000000000000000000000000000000000008000000,
|
|
|
|
#GOGOEND
|
|
|
|
|
|
#END
|
|
|
|
|
|
COURSE:Hard
|
|
LEVEL:4
|
|
SCOREINIT:720
|
|
SCOREDIFF:180
|
|
|
|
|
|
#START
|
|
|
|
|
|
100000000000000000100000100000000000100000000000,
|
|
#BPMCHANGE 94.55
|
|
100000000000100000100100000000000000000000000000,
|
|
#BPMCHANGE 91.59
|
|
100000000000000000100000100000000000100000000000,
|
|
#BPMCHANGE 94.8
|
|
100000000000100000100100000000000000000100000200,
|
|
#BPMCHANGE 94.02
|
|
100000100000000100000200100000100000000000100100,
|
|
#BPMCHANGE 93.97
|
|
100000200000100000200000100000100000200000000000,
|
|
#BPMCHANGE 93.11
|
|
100000100000200000000000100000100000200000000000,
|
|
#BPMCHANGE 93.53
|
|
100000200000100000100100000000000100100000100000,
|
|
#MEASURE 6/4
|
|
#BPMCHANGE 95.56
|
|
500000000000000000000000000000000800000000000000
|
|
#BPMCHANGE 94
|
|
000000000000000000000000,
|
|
#MEASURE 4/4
|
|
100000100000200000000000100000100000200000000000,
|
|
100000100000200000000000100000100000200000100000,
|
|
100000100000200000000000100000100000200000000000,
|
|
100000100000200000000000100010000000000000000000,
|
|
100000000000200000000010100000100000200000000000,
|
|
100000100000200000000010100000100000200000000000,
|
|
100000000000200000000010100000100000200000000000,
|
|
100000100000200000200000100000200000200000000000,
|
|
100000000000200000000010100000100000200000000000,
|
|
100000100000200000000010100000100000200000000000,
|
|
100000000000200000000010100000100000200000000000,
|
|
100000100000200000200000100000200000200000000000,
|
|
100000100000200000200000100000100000200000000000,
|
|
100000100000200000200000100000100000200000000000,
|
|
100000100000200000100000100000200000100000200000,
|
|
100000100000200000200000100000100000000000000000,
|
|
100000100000200000200000100000100000200000000000,
|
|
100000100000200000200000100000100000200000000000,
|
|
100000100000200000100000100000200000100000200000,
|
|
500000000000000000800000000000100000200000000000,
|
|
#GOGOSTART
|
|
100000100000200000100000000000100000200000000000,
|
|
100000100000200000100000000000100000200000000000,
|
|
100000100000200000100000000000100000200000000000,
|
|
100000100000200000100000000000100000200000000000,
|
|
100000100010100000000000100000100010100000000000,
|
|
100000200000100000200000300000300000400000000000,
|
|
100000100000200000200000100000100000200000000000,
|
|
100000200000100000000000100000100000200000000000,
|
|
100000100000200000100000000000100000200000100000,
|
|
100000100000200000100000000000100000200000000000,
|
|
100000100000200000100000000000100000200000100000,
|
|
100000100000200000100000000000100000200000000000,
|
|
100000100010200000000000100000100010200000000000,
|
|
100000200000100000200000300000300000400000000000,
|
|
100000100000200000000000100000100000200000000000,
|
|
100000200000100000100100000000000000100000100000,
|
|
500000000000000000000000000000000000000800000000,
|
|
#GOGOEND
|
|
|
|
|
|
#END
|
|
|
|
|
|
COURSE:Normal
|
|
LEVEL:3
|
|
SCOREINIT:840
|
|
SCOREDIFF:220
|
|
|
|
|
|
#START
|
|
|
|
|
|
#BPMCHANGE 94.72
|
|
100000000000000000000000100000000000000000000000,
|
|
#BPMCHANGE 94.55
|
|
100000100000000000100100000000000000000000000000,
|
|
#BPMCHANGE 91.60
|
|
100000000000000000000000100000000000000000000000,
|
|
#BPMCHANGE 94.80
|
|
100000100000000000100100000000000000000000000000,
|
|
#BPMCHANGE 94.02
|
|
100000100000000000000000200000200000000000000000,
|
|
#BPMCHANGE 93.96
|
|
100000000000100000000000100000100000100000000000,
|
|
#BPMCHANGE 93.12
|
|
100000000000200000000000100000100000200000000000,
|
|
#BPMCHANGE 93.54
|
|
100000000000100000000000200000000000100000000000,
|
|
#BPMCHANGE 95.89
|
|
500000000000000000000000000000800000000000000000,
|
|
#MEASURE 2/4
|
|
#BPMCHANGE 94
|
|
000000000000000000000000,
|
|
#MEASURE 4/4
|
|
100000000000000000000000200000000000000000000000,
|
|
100000000000000000000000200000000000000000100000,
|
|
100000000000000000000000200000000000000000000000,
|
|
300000000000000000000000400000000000000000000000,
|
|
100000000000100000000000100000100000000000000000,
|
|
100000000000100000000000100000100000000000000000,
|
|
100000000000100000000000100000100000100000000000,
|
|
100000100000100000000000100000100000100000000000,
|
|
100000000000100000000000100000100000000000000000,
|
|
100000000000100000000000100000100000000000000000,
|
|
100000000000100000000000100000100000100000000000,
|
|
100000100000100000000000100000100000100000000000,
|
|
100000000000200000000000100000100000100000000000,
|
|
100000000000200000000000200000200000200000000000,
|
|
100000000000200000000000100000100000100000000000,
|
|
100000000000100000000000100000100000000000000000,
|
|
100000000000200000000000100000100000100000000000,
|
|
100000000000200000000000200000200000200000000000,
|
|
100000000000200000000000100000100000100000000000,
|
|
500000000000000000800000000000000000000000000000,
|
|
#GOGOSTART
|
|
100000100000000000000000100000000000000000000000,
|
|
100000100000000000100100000000000000000000000000,
|
|
100000100000000000000000100000000000000000000000,
|
|
100000100000000000100100000000000000000000000000,
|
|
100000100000000000000000200000200000000000000000,
|
|
100000000000200000000000300000300000300000000000,
|
|
100000000000200000000000100000100000200000000000,
|
|
100000000000100000000000200000000000000000000000,
|
|
100000100000000000000000100000000000100000000000,
|
|
100000100000000000100100000000000000000000000000,
|
|
100000100000000000000000100000000000100000000000,
|
|
100000100000000000100100000000000000000000000000,
|
|
100000100000000000000000200000200000000000000000,
|
|
100000000000200000000000300000300000300000000000,
|
|
100000000000200000000000100000100000200000000000,
|
|
100000000000100000000000200000000000100000000000,
|
|
500000000000000000000000000000000000800000000000,
|
|
#GOGOEND
|
|
|
|
|
|
#END
|
|
|
|
|
|
COURSE:Easy
|
|
LEVEL:3
|
|
SCOREINIT:760
|
|
SCOREDIFF:240
|
|
|
|
|
|
#START
|
|
|
|
|
|
100000000000000000000000100000000000000000000000,
|
|
#BPMCHANGE 94.59
|
|
100000000000100000000000100000000000000000000000,
|
|
#BPMCHANGE 91.6
|
|
100000000000000000000000100000000000000000000000,
|
|
#BPMCHANGE 94.8
|
|
100000000000100000000000100000000000000000000000,
|
|
#BPMCHANGE 94.02
|
|
100000000000000000000000200000000000000000000000,
|
|
#BPMCHANGE 93.96
|
|
100000000000100000000000100000100000100000000000,
|
|
#BPMCHANGE 93.12
|
|
100000000000000000000000100000000000000000000000,
|
|
#BPMCHANGE 93.54
|
|
100000000000100000000000100000000000000000000000,
|
|
#BPMCHANGE 95.89
|
|
#MEASURE 6/4
|
|
500000000000000000000000000000800000000000000000
|
|
#BPMCHANGE 94
|
|
000000000000000000000000,
|
|
#MEASURE 4/4
|
|
100000000000000000000000200000000000000000000000,
|
|
100000000000000000000000200000000000000000000000,
|
|
100000000000000000000000200000000000000000000000,
|
|
300000000000000000000000400000000000000000000000,
|
|
100000000000000000000000100000100000000000000000,
|
|
100000000000000000000000100000100000000000000000,
|
|
100000000000000000000000100000100000000000000000,
|
|
100000000000200000000000200000000000200000000000,
|
|
100000000000000000000000100000100000000000000000,
|
|
100000000000000000000000100000100000000000000000,
|
|
100000000000000000000000100000100000000000000000,
|
|
100000000000200000000000200000000000200000000000,
|
|
100000000000000000000000100000100000100000000000,
|
|
100000000000000000000000100000100000100000000000,
|
|
100000000000000000000000100000000000100000000000,
|
|
100000000000100000000000100000100000000000000000,
|
|
100000000000000000000000100000100000100000000000,
|
|
100000000000000000000000100000100000100000000000,
|
|
100000000000000000000000100000000000100000000000,
|
|
500000000000000000800000000000000000000000000000,
|
|
#GOGOSTART
|
|
100000100000000000000000100000000000000000000000,
|
|
100000000000100000000000100000000000000000000000,
|
|
100000100000000000000000100000000000000000000000,
|
|
100000000000100000000000200000000000000000000000,
|
|
100000000000000000000000200000000000000000000000,
|
|
100000000000100000000000100000100000100000000000,
|
|
100000000000000000000000100000000000000000000000,
|
|
100000000000200000000000100000000000000000000000,
|
|
100000100000000000000000100000000000000000000000,
|
|
100000000000100000000000100000000000000000000000,
|
|
100000100000000000000000100000000000000000000000,
|
|
100000000000100000000000200000000000000000000000,
|
|
300000000000000000000000400000000000000000000000,
|
|
100000000000100000000000100000100000100000000000,
|
|
100000000000000000000000100000000000000000000000,
|
|
100000000000200000000000100000000000000000000000,
|
|
500000000000000000000000000000000000800000000000,
|
|
#GOGOEND
|
|
|
|
|
|
#END
|
|
|