forked from ESE/ESE
266 lines
2.7 KiB
Plaintext
266 lines
2.7 KiB
Plaintext
//TJADB Project
|
|
TITLE:Highschool♡love
|
|
TITLEJA:Highschool・love
|
|
SUBTITLE:--E-girls
|
|
BPM:128
|
|
WAVE:Highschool love.ogg
|
|
OFFSET:-2.660
|
|
DEMOSTART:72.035
|
|
|
|
COURSE:Oni
|
|
LEVEL:6
|
|
SCOREINIT:800
|
|
SCOREDIFF:190
|
|
|
|
|
|
#START
|
|
|
|
|
|
0003,
|
|
30030030,
|
|
3333,
|
|
300000000000000000600000000000000000000000000008,
|
|
00002021,
|
|
0022100020102020,
|
|
2210222022102220,
|
|
00000222,
|
|
2000122020002000,
|
|
2000122020201000,
|
|
2220102020002000,
|
|
2220102020201000,
|
|
2220102000000000,
|
|
2220102000001000,
|
|
2220102000202020,
|
|
34340000,
|
|
1001201010012010,
|
|
1001201010112000,
|
|
1001201010012010,
|
|
1001201022102210,
|
|
1002102010021020,
|
|
1002102010112000,
|
|
1010222010102220,
|
|
33330000,
|
|
1011100020202020,
|
|
1011100020202020,
|
|
0022202011101010,
|
|
1110222011102220,
|
|
30000440,//29
|
|
|
|
#GOGOSTART
|
|
1002102220102010,
|
|
3000300030002220,
|
|
3030222030302220,
|
|
30303222,
|
|
1002102220102010,
|
|
3000300030302220,
|
|
3030222030302220,
|
|
3000300030112000,
|
|
1001201010012010,
|
|
3000300030222020,
|
|
1001201010012010,
|
|
4000400040112010,
|
|
1001201010012010,
|
|
3000300030222020,
|
|
11221021,
|
|
12121334,//45
|
|
|
|
#GOGOEND
|
|
|
|
|
|
#END
|
|
|
|
|
|
COURSE:Hard
|
|
LEVEL:5
|
|
BALLOON:5,5
|
|
SCOREINIT:840
|
|
SCOREDIFF:220
|
|
|
|
|
|
#START
|
|
|
|
|
|
0003,
|
|
30030030,
|
|
3333,
|
|
300000000000000000600000000000000000000000000008,
|
|
00002002,
|
|
02202222,
|
|
2220202020202220,
|
|
00000220,
|
|
20122020,
|
|
20122010,
|
|
22102020,
|
|
22102210,
|
|
22120000,
|
|
22120010,
|
|
22120220,
|
|
44440000,
|
|
1000100010111000,
|
|
10101011,
|
|
1000100010111000,
|
|
1122,
|
|
1000100010111000,
|
|
10101011,
|
|
10110110,
|
|
3300,
|
|
70081111,
|
|
70082222,
|
|
01112220,
|
|
11222000,
|
|
30000440,//29
|
|
|
|
#GOGOSTART
|
|
1010102220200020,
|
|
30303022,
|
|
30223022,
|
|
3330,
|
|
1000101022202020,
|
|
30303022,
|
|
30223022,
|
|
3330,
|
|
1000001010111010,
|
|
3330,
|
|
1000001010222010,
|
|
4440,
|
|
1000001010111010,
|
|
3330,
|
|
1010222010001020,
|
|
10121334,//45
|
|
|
|
#GOGOEND
|
|
|
|
|
|
#END
|
|
|
|
|
|
COURSE:Normal
|
|
LEVEL:4
|
|
BALLOON:12
|
|
SCOREINIT:870
|
|
SCOREDIFF:260
|
|
|
|
|
|
#START
|
|
|
|
|
|
,
|
|
30030030,
|
|
3333,
|
|
300000000000000000600000000000000000000000000008,
|
|
02,
|
|
0202,
|
|
20020020,
|
|
,
|
|
20222020,
|
|
2220,
|
|
20222020,
|
|
2220,
|
|
20220000,
|
|
20220000,
|
|
20220220,
|
|
4400,
|
|
10101110,
|
|
1110,
|
|
10101011,
|
|
1110,
|
|
10101110,
|
|
1110,
|
|
10110110,
|
|
3300,
|
|
1122,
|
|
1122,
|
|
01102020,
|
|
11101000,
|
|
3,//29
|
|
|
|
#GOGOSTART
|
|
10101011,
|
|
1110,
|
|
3434,
|
|
3330,
|
|
10101011,
|
|
1110,
|
|
3434,
|
|
3330,
|
|
10111010,
|
|
3330,
|
|
10111010,
|
|
4440,
|
|
10111010,
|
|
3330,
|
|
11102020,
|
|
9,//45
|
|
|
|
#GOGOEND
|
|
8,
|
|
|
|
|
|
#END
|
|
|
|
|
|
COURSE:Easy
|
|
LEVEL:3
|
|
BALLOON:10
|
|
SCOREINIT:740
|
|
SCOREDIFF:290
|
|
|
|
|
|
#START
|
|
|
|
|
|
,
|
|
30030030,
|
|
3333,
|
|
300000000000000000600000000000000000000000000008,
|
|
02,
|
|
0200,
|
|
2002,
|
|
,
|
|
0200,
|
|
0202,
|
|
0200,
|
|
0202,
|
|
0200,
|
|
0200,
|
|
2220,
|
|
4400,
|
|
11,
|
|
1100,
|
|
11,
|
|
1100,
|
|
11,
|
|
1100,
|
|
1110,
|
|
3300,
|
|
1120,
|
|
1120,
|
|
1122,
|
|
1120,
|
|
3,//29
|
|
|
|
#GOGOSTART
|
|
1110,
|
|
1110,
|
|
3344,
|
|
3330,
|
|
11,
|
|
1110,
|
|
3344,
|
|
3330,
|
|
11,
|
|
3330,
|
|
11,
|
|
4440,
|
|
11,
|
|
3330,
|
|
1111,
|
|
9,//45
|
|
|
|
#GOGOEND
|
|
8,
|
|
|
|
|
|
#END
|
|
|