Files
2023-06-15 19:15:39 -05:00

221 lines
3.9 KiB
Plaintext

//TJADB Project
TITLE:Himawari no Yakusoku
TITLEJA:ひまわりの約束
SUBTITLE:--Motohiro Hata/STAND BY ME Doraemon
SUBTITLEJA:映画「STAND BY ME ドラえもん」より
BPM:79
WAVE:Himawari no Yakusoku.ogg
OFFSET:-6.344
DEMOSTART:59.305
COURSE:Oni
LEVEL:7
SCOREINIT:1260
SCOREDIFF:300
#START
#SCROLL 0.5
12210000,
12210020,
12210212,
01200000,
12210001,
12210121,
11210221,
02210120,
12210001,
12210012,
12210221,
01121121,
00002212,
500000000008000000000500000000000008000000000500,
000000000008000000200200100000000000200200100000,
12212105,
#MEASURE 6/4
00000800000020020010000000000000000030000000000000000000000000000000000,
#GOGOSTART
#MEASURE 4/4
#SCROLL 1
1222022210102221,
0011002210120022,
500000000008000000200200100000100000200000200000,
500000000008000000200000100000100000200000000000,
#SCROLL 1.5
1022020210102002,
1022020210102002,
1022102212102210,
500000000008000000200200100000100000200100100000,
#SCROLL 2
1222022210102021,
0011002210120022,
500000000008000000200200100000100000200000200000,
500000000008000000200000100000100000200200200000,
#SCROLL 2.5
1022102212102022,
1022102212102022,
#SCROLL 3
1022102211221122,
1010211040000000,
500000000000000000000000000000000008000000000000,
#GOGOEND
#END
COURSE:Hard
LEVEL:5
SCOREINIT:1160
SCOREDIFF:280
#START
12210000,
12210210,
12210212,
01200000,
1010201000000022,
11210022,
11210221,
0020201000002210,
1010201000000022,
11210022,
11210211,
01221121,
00002222,
500000000008000000100500000000000008000000100500,
000000000008000000100500000008000000200200200000,
11211105,
#MEASURE 6/4
000008000000100100100000000000000000300000000000000000000000000000000000,
#MEASURE 4/4
#SCROLL 1.5
#GOGOSTART
100100200200000200200500000000008000200200200500,
008000200500008000200500008000200500008000200500,
000000000008000000200100000000100000200000200000,
500000000008000000500000000000000008000000000100,
100000200200000200000500000000000000008000000100,
100000200200000200000500000000000000008000000100,
100000200200000000100500000000008000100000000000,
500000000008000000200200100000100000200200200000,
100100200200000200200500000000008000200200200500,
008000200500008000200500008000200500008000200500,
000000000008000000200100000000100000200000200000,
500000000008000000500000000000000008000000000100,
200000200200000000200100000100500000000008000100,
200000200100000000100200000100500000000008000100,
1022002200110022,
0010211040000000,
500000000000000000000000000000000008000000000000,//34
#BARLINEOFF
#GOGOEND
,
#END
COURSE:Normal
LEVEL:4
#START
11010000,
11010020,
22020102,
01200000,
11010000,
11010022,
11010222,
01110000,
11010000,
11010022,
11010222,
01111010,
10002222,
1202,
1202,
11101105,
#MEASURE 6/4
000008000000100000100000000000000000300000000000000000000000000000000000,
#MEASURE 4/4
#SCROLL 1.5
#GOGOSTART
10201120,
10201120,
10201122,
500000000000000000000000000000000008000000000000,
10201120,
10201120,
10201120,
500000000008000000200000100000100000200000000000,
10201120,
10201120,
10201122,
500000000000000000000000000000000008000000000000,
10201120,
10201120,
10201120,
11214000,
500000000000000000000000000000000008000000000000,//34
#BARLINEOFF
#GOGOEND
,
#END
COURSE:Easy
LEVEL:3
#START
20020000,
20020000,
20020002,
0200,
10010000,
10010020,
10010101,
0122,
10010000,
10010020,
10010100,
1022,
1022,
50082020,
50082020,
10101105,
#MEASURE 6/4
000000000000000008000000000000000000300000000000000000000000000000000000,
#MEASURE 4/4
#GOGOSTART
10201100,
10201100,
10201100,
500000000000000000000000000000000008000000000000,
10201100,
10201100,
10201100,
500000000000000000000000000008000000000000000000,
10201100,
10201100,
10201100,
500000000000000000000000000000000008000000000000,
10201100,
10201100,
10201100,
1140,
500000000000000000000000000000000008000000000000,//34
#BARLINEOFF
#GOGOEND
,
#END