forked from ESE/ESE
295 lines
11 KiB
Plaintext
295 lines
11 KiB
Plaintext
//TJADB Project
|
|
TITLE:Huo Yuan Jia
|
|
TITLEJA:霍元甲
|
|
SUBTITLE:--Jay Chou/Fearless
|
|
BPM:98
|
|
WAVE:Huo Yuan Jia.ogg
|
|
OFFSET:-2.495
|
|
DEMOSTART:80.862
|
|
|
|
COURSE:Oni
|
|
LEVEL:7
|
|
SCOREINIT:740
|
|
SCOREDIFF:170
|
|
|
|
|
|
#START
|
|
|
|
|
|
100000000000000000100000100000000000300000000000,
|
|
#BPMCHANGE 98.83
|
|
000000000000000000100100100000100000100000200000,
|
|
#BPMCHANGE 97.18
|
|
300000200000200000100000200000100000200000100000,
|
|
#BPMCHANGE 98
|
|
100000100100100000200000100000100100100000200000,
|
|
100100100000100000100100100100100100100000200000,
|
|
100100100000100000100100100100100100200000100000,
|
|
#BPMCHANGE 98.36
|
|
200000100000200000100000200000100100100000100000,
|
|
#BPMCHANGE 98
|
|
500000000000000000000000000000000000000008000000,
|
|
300000100100200000100000100100100000200000100100,
|
|
200000100100200000100000100100100000200000100100,
|
|
100000100100200000100000100100100000200000100000,
|
|
100000100100200000100000100000000000200100100000,
|
|
100000100100200000100000100100100000200000100100,
|
|
200000100100200000100000100100100000200000100100,
|
|
100000100100200000100000100100100000200000100000,
|
|
100000100100200000100000100000100100200000000000,
|
|
100000100000100100000100000100100000100000100200,
|
|
100000100000100100000100000100100000200000000000,
|
|
100000100000100100000100000100100000100000100200,
|
|
100000100000100100000100000100100000200000000000,
|
|
100000100000200000100100000200100000200000000000,
|
|
100000100000200000100100000200100000200000100200,
|
|
100000100000200000100100000200100000200000000000,
|
|
100200000100200000100000100200000100200200200200,
|
|
100000200200100000200000100000200200200000000000,
|
|
100000200200100000200000100000200200200000000000,
|
|
100000200200100000200000100000200200100000200000,
|
|
100000100100200000200000100000100200100000000000,
|
|
100000200200100000200000100000200200200000000000,
|
|
100000200200100000200000100000200200200000000000,
|
|
100000200200100000200000100000200200100000200000,
|
|
100000100100200000200000100000100200100000000000,
|
|
|
|
#GOGOSTART
|
|
100000100000200100000100000100100000200000100200,
|
|
100000100000200100000100000100200100200000200200,
|
|
100000100000200100000100000100100000200000100200,
|
|
100000100000200200100100000200000200100100100100,
|
|
100000100000200100000100000100100000200000100200,
|
|
100000100000200100000100000100200100200000200200,
|
|
100000100000200100000100000100100000200000100200,
|
|
100000100100200000100100200200200200100100100100,
|
|
|
|
#GOGOEND
|
|
500000000000000000000000000000000000000000000000,
|
|
000000000000000000000008000000000000000000000000,
|
|
100000000000200000100000100000100100200000000000,
|
|
100000000000200000100000100000100100200000000000,
|
|
200000200000200000200000200000000000100000000000,
|
|
200000200000200000200000200000000200100000200000,
|
|
100000200000200000200000200000000000000000000000,
|
|
100000200000200000200000200000000200100000200000,
|
|
300000000000000000000000000000000000000000000000,
|
|
|
|
|
|
#END
|
|
|
|
|
|
COURSE:Hard
|
|
LEVEL:6
|
|
SCOREINIT:730
|
|
SCOREDIFF:190
|
|
|
|
|
|
#START
|
|
|
|
|
|
100000000000000000100000100000000000300000000000,
|
|
#BPMCHANGE 98.83
|
|
000000000000000000100000100000100000100000100000,
|
|
#BPMCHANGE 97.18
|
|
300000000000000000100000100000000000200000000000,
|
|
#BPMCHANGE 98
|
|
100000100000100000200000100000100000100000000000,
|
|
100000100100100000200000100100100000200000000000,
|
|
100100100000200000200000100100100000200000000000,
|
|
#BPMCHANGE 98.36
|
|
100000200000100000200000100000100100100000200000,
|
|
#BPMCHANGE 98
|
|
500000000000000000000000800000000000000000000000,
|
|
100000100000000000100000100000100000200000100000,
|
|
100000100000000000100000100000100000200000100000,
|
|
100000100000000000100000100000100000200000100000,
|
|
100000100000000000100000100000000000200000000000,
|
|
100000100000200000100000000000100000200000100000,
|
|
100000100000200000100000000000100000200000100000,
|
|
100000100000200000100000000000100000200000100000,
|
|
100000100000200000100000000000100100100000000000,
|
|
100000100000100100000100000100100000100000000000,
|
|
100000100000200000000000100100100000200000000000,
|
|
100000100000100100000100000100100000100000000000,
|
|
100000100000200000000000100100100000200000000000,
|
|
100000000000200000000100000000100000200000000000,
|
|
100000000000200000000100000000100000200000100000,
|
|
100000000000200000000100000000100000200000000000,
|
|
200200000200200000000000200200000200200000000000,
|
|
100000200000200000200000100000200200200000000000,
|
|
100000200000200000200000100000200200200000000000,
|
|
100000200000200000200000100000200000200000200000,
|
|
100000100100100000100000200000200200200000000000,
|
|
100000200000200000200000100000200200200000000000,
|
|
100000200000200000200000100000200200200000000000,
|
|
100000200000200000200000100000200000200000200000,
|
|
100000100100100000100000200000200200200000000000,
|
|
|
|
#GOGOSTART
|
|
100000100000100100000100000100100000100000000000,
|
|
100000100000100100000100000100100000200000000000,
|
|
100000100000100100000100000100100000100000000000,
|
|
100000100000100100000100000100100000200000000000,
|
|
100000100000100100000100000100100000100000000000,
|
|
100000100000100100000100000100100000200000000000,
|
|
100000100000100100000100000100100000100000000000,
|
|
100000100000100100000100000100100000200000000000,
|
|
|
|
#GOGOEND
|
|
500000000000000000000000000000000000000000000000,
|
|
000000000000800000000000000000000000000000000000,
|
|
100000000000200000100000100000100000200000000000,
|
|
100000000000200000100000100000100000200000000000,
|
|
200000200000200000200000200000000000000000000000,
|
|
200000200000200000200000200000000000200000200000,
|
|
100000200000200000200000200000000000000000000000,
|
|
100000200000200000200000200000000000200000200000,
|
|
300000000000000000000000000000000000000000000000,
|
|
|
|
|
|
#END
|
|
|
|
|
|
COURSE:Normal
|
|
LEVEL:4
|
|
SCOREINIT:970
|
|
SCOREDIFF:280
|
|
|
|
|
|
#START
|
|
|
|
|
|
000000000000000000000000000000000000300000000000,
|
|
#BPMCHANGE 98.83
|
|
000000000000000000000000000000000000000000000000,
|
|
#BPMCHANGE 97.18
|
|
300000000000000000300000000000000000000000000000,
|
|
#BPMCHANGE 98
|
|
300000000000000000300000000000000000000000000000,
|
|
100000000000100000000000100000100000100000000000,
|
|
100000000000100000000000100000100000100000000000,
|
|
#BPMCHANGE 98.36
|
|
100000000000100000000000100000000000100000000000,
|
|
#BPMCHANGE 98
|
|
500000000000000000000000800000000000000000000000,
|
|
100000000000100000100000000000100000100000000000,
|
|
100000000000100000100000000000100000100000000000,
|
|
100000000000100000100000000000100000100000000000,
|
|
100000000000000000000000000000000000000000000000,
|
|
100000000000100000100000000000100000100000000000,
|
|
100000000000100000100000000000100000100000000000,
|
|
100000000000100000100000000000100000100000000000,
|
|
500000000000000000000000800000000000000000000000,
|
|
100000000000100000000000100000100000100000000000,
|
|
100000000000100000000000200000000000000000000000,
|
|
100000000000100000000000100000100000100000000000,
|
|
100000000000100000000000200000000000000000000000,
|
|
100000000000200000000000000000100000100000000000,
|
|
100000000000200000000000000000100000100000000000,
|
|
100000000000200000000000000000100000100000000000,
|
|
200000000000200000000000200000000000000000000000,
|
|
100000100000100000000000200000000000000000000000,
|
|
100000100000100000000000200000000000000000000000,
|
|
100000100000100000000000100000000000100000000000,
|
|
100000100000100000000000200000000000000000000000,
|
|
100000100000100000000000200000000000000000000000,
|
|
100000100000100000000000200000000000000000000000,
|
|
100000100000100000000000100000000000100000000000,
|
|
100000100000100000000000200000000000000000000000,
|
|
|
|
#GOGOSTART
|
|
100000100000100000000000100000100000100000000000,
|
|
100000000000100000000000200000000000000000000000,
|
|
100000100000100000000000100000100000100000000000,
|
|
100000000000100000000000200000000000000000000000,
|
|
100000100000100000000000100000100000100000000000,
|
|
100000000000100000000000200000000000000000000000,
|
|
100000100000100000000000100000100000100000000000,
|
|
100000000000100000000000200000000000000000000000,
|
|
|
|
#GOGOEND
|
|
500000000000000000000000000000000000000000000000,
|
|
000000000000800000000000000000000000000000000000,
|
|
100000000000200000000000000000000000200000000000,
|
|
100000000000200000000000000000000000200000000000,
|
|
100000000000200000000000200000000000000000000000,
|
|
100000000000200000000000200000000000000000000000,
|
|
100000000000200000000000200000000000000000000000,
|
|
100000000000200000000000200000000000000000000000,
|
|
300000000000000000000000000000000000000000000000,
|
|
|
|
|
|
#END
|
|
|
|
|
|
COURSE:Easy
|
|
LEVEL:3
|
|
|
|
|
|
#START
|
|
|
|
|
|
000000000000000000000000000000000000000000000000,
|
|
#BPMCHANGE 98.83
|
|
000000000000000000000000000000000000000000000000,
|
|
#BPMCHANGE 97.18
|
|
000000000000000000000000000000000000300000000000,
|
|
#BPMCHANGE 98
|
|
000000000000000000000000000000000000000000000000,
|
|
300000000000000000000000000000000000000000000000,
|
|
300000000000000000000000000000000000000000000000,
|
|
#BPMCHANGE 98.36
|
|
100000000000000000000000100000000000000000000000,
|
|
#BPMCHANGE 98
|
|
100000000000100000000000100000000000000000000000,
|
|
100000000000000000000000100000000000000000000000,
|
|
500000000000000000000000000080000000000000000000,
|
|
100000000000000000000000100000000000000000000000,
|
|
100000000000100000000000100000000000000000000000,
|
|
100000000000000000000000100000000000000000000000,
|
|
100000000000100000000000100000000000000000000000,
|
|
100000000000000000000000100000000000000000000000,
|
|
100000000000100000000000100000000000000000000000,
|
|
100000000000000000000000100000000000000000000000,
|
|
100000000000000000000000000000000000000000000000,
|
|
100000000000100000000000100000000000000000000000,
|
|
100000000000000000000000200000000000000000000000,
|
|
100000000000100000000000100000000000000000000000,
|
|
100000000000000000000000200000000000000000000000,
|
|
500000000000000000000000000000000000000000000080,
|
|
000000000000000000000000000000000000000000000000,
|
|
100000000000000000000000100000000000000000000000,
|
|
100000000000000000000000000000000000000000000000,
|
|
100000000000000000000000200000000000000000000000,
|
|
100000000000000000000000200000000000000000000000,
|
|
100000000000000000000000100000000000000000000000,
|
|
100000000000000000000000200000000000000000000000,
|
|
100000000000000000000000200000000000000000000000,
|
|
100000000000000000000000200000000000000000000000,
|
|
100000000000000000000000100000000000000000000000,
|
|
100000000000000000000000000000000000000000000000,
|
|
#GOGOSTART
|
|
100000000000100000000000100000000000000000000000,
|
|
100000000000000000000000200000000000000000000000,
|
|
100000000000100000000000100000000000000000000000,
|
|
100000000000000000000000200000000000000000000000,
|
|
100000000000100000000000100000000000000000000000,
|
|
100000000000000000000000200000000000000000000000,
|
|
100000000000100000000000100000000000000000000000,
|
|
100000000000000000000000200000000000000000000000,
|
|
#GOGOEND
|
|
500000000000000000000000000000000000000000000000,
|
|
000000000000000000000080000000000000000000000000,
|
|
100000000000000000000000200000000000000000000000,
|
|
100000000000000000000000200000000000000000000000,
|
|
000000000000200000000000200000000000000000000000,
|
|
000000000000200000000000200000000000000000000000,
|
|
000000000000200000000000200000000000000000000000,
|
|
000000000000200000000000200000000000000000000000,
|
|
300000000000000000000000000000000000000000000000,
|
|
|
|
|
|
#END
|
|
|