forked from ESE/ESE
698 lines
14 KiB
Plaintext
698 lines
14 KiB
Plaintext
//TJADB Project
|
||
TITLE:I’m a Slave 4 U
|
||
TITLEJA:I’m a Slave 4 U
|
||
SUBTITLE:--Britney Spears
|
||
BPM:110
|
||
WAVE:I’m a Slave 4 U.ogg
|
||
OFFSET:-2.919
|
||
DEMOSTART:79.280
|
||
|
||
COURSE:Oni
|
||
LEVEL:5
|
||
|
||
STYLE:Double
|
||
|
||
|
||
#START P1
|
||
|
||
|
||
,
|
||
,
|
||
10200120,
|
||
11010000,
|
||
10200120,
|
||
11010000,
|
||
3,
|
||
1001001201201020,
|
||
1001002102101122,
|
||
1001001201201020,
|
||
1001001120112011,
|
||
2021021021021020,
|
||
1012012012021122,
|
||
1021021021021020,
|
||
1012001120112012,
|
||
1000001022200030,
|
||
0022201000000030,
|
||
0000001022200030,
|
||
0000002202202020,
|
||
1021021021021020,
|
||
1012012012021122,
|
||
1021021021021020,
|
||
1012002120212012,
|
||
1021001202102000,
|
||
1021002101201122,
|
||
1021001202102000,
|
||
1021002101201010,
|
||
000000000000000000000500000000000000000000008000,
|
||
000022000,
|
||
1000001202102000,
|
||
0000002101201020,
|
||
000000000000000000000500000000000000000000008000,
|
||
00022000,
|
||
1001001010102000,
|
||
1001001010101122,
|
||
1001001111102000,
|
||
1001002010201020,
|
||
1001001111102000,
|
||
1012001200002222,
|
||
1001002010201020,
|
||
1001002010201020,
|
||
1001001111102000,
|
||
30000110,
|
||
3,
|
||
|
||
|
||
#END
|
||
|
||
|
||
#START P2
|
||
|
||
|
||
,
|
||
,
|
||
11010000,
|
||
10200120,
|
||
11010000,
|
||
10200120,
|
||
3,
|
||
1021021021021020,
|
||
1012012012021122,
|
||
1021021021021020,
|
||
1012001120112011,
|
||
2001001201201020,
|
||
1001002102101122,
|
||
1001001201201020,
|
||
1001001120112012,
|
||
1022201000000030,
|
||
0000001022200030,
|
||
0022201000000030,
|
||
0000002202202020,
|
||
1021001202102000,
|
||
1021002101201122,
|
||
1021001202102000,
|
||
1021002120212012,
|
||
1021021021021020,
|
||
1012012012021122,
|
||
1021021021021020,
|
||
1012012012021010,
|
||
000000000000000000000500000000000000000000008000,
|
||
00022000,
|
||
1001001010102000,
|
||
1001001010102000,
|
||
000000000000000000000500000000000000000000008000,
|
||
00022000,
|
||
1000001202101000,
|
||
0000002101201122,
|
||
1001002010201020,
|
||
1001001111102000,
|
||
1001002010201020,
|
||
1012000001202222,
|
||
1001001111102000,
|
||
1001001111102000,
|
||
1001002010201020,
|
||
30000110,
|
||
3,
|
||
|
||
|
||
#END
|
||
|
||
|
||
STYLE:Single
|
||
|
||
|
||
#START
|
||
|
||
|
||
000000000000000000000000000000000000000000000000,
|
||
000000000000000000000000000000000000000000000000,
|
||
100000000000200000000000000000100000100000000000,
|
||
100000000000200000000000000000100000100000000000,
|
||
100000000000200000000000000000100000100000000000,
|
||
100000000000200000000000000000100000100000000000,
|
||
100000000000000000000000000000000000000 000000000,
|
||
100000100100000000100200000100200000100000200000,
|
||
100000100100000000200100000200100000100000000000,
|
||
100000100100000000100200000100200000100000200000,
|
||
100000100100000000100100200000100100200000100200,
|
||
100000100100000000100200000100200000100000200000,
|
||
100000100100000000200100000200100000100000000000,
|
||
100000100100000000100200000100200000100000200000,
|
||
100000100100000000100100200000100100200000100200,
|
||
100000200000200000000000100000200000000000000000,
|
||
100000200000200000000000100000200000000000000000,
|
||
100000200000200000000000100000200000000000000000,
|
||
000000000000000000200200000200200000200000200000,
|
||
100000200100000000100200000200100000200000000000,
|
||
100000200100000000200100000100200000100100200200,
|
||
100000200100000000100200000200100000200000000000,
|
||
100000200100000000200100200000200100200000100200,
|
||
100000200100000000100200000200100000200000000000,
|
||
100000200100000000200100000100200000100100200200,
|
||
100000200100000000100200000200100000200000000000,
|
||
100000200100000000200100000100200000100000100000,
|
||
000000000000000000000500000000000000000000800000,
|
||
000000000000000000200000200000000000000000000000,
|
||
100000000000000000100200000200100000100100200000,
|
||
000000000000000000200100000100200000100000200000,
|
||
000000000000000000000500000000000000000000800000,
|
||
000000000000000000200000200000000000000000000000,
|
||
100000000000000000100200000200100000100100200000,
|
||
000000000000000000200100000100200000100100200200,
|
||
#GOGOSTART
|
||
100000000100000000100100100100100000200000000000,
|
||
100000000100000000200000100000200000100000200000,
|
||
100000000100000000100100100100100000200000000000,
|
||
100000100100000000100200000100200000100100200200,
|
||
100000000100000000100100100100100000200000000000,
|
||
100000000100000000200000100000200000100000200000,
|
||
100000000100000000100100100100100000200000000000,
|
||
100000000000000000000000000000100000100000000000,
|
||
#GOGOEND
|
||
300000000000000000000000000000000000000000000000,
|
||
|
||
|
||
#END
|
||
|
||
|
||
COURSE:Hard
|
||
LEVEL:4
|
||
|
||
STYLE:Double
|
||
SCOREINIT:850
|
||
|
||
|
||
#START P1
|
||
|
||
|
||
,
|
||
,
|
||
10000110,
|
||
1200,
|
||
10000110,
|
||
1200,
|
||
1,
|
||
1001001100101000,
|
||
1000002202202000,
|
||
1001001100101000,
|
||
1012001120000000,
|
||
1000002202202000,
|
||
1001001100101000,
|
||
1000002202202000,
|
||
1012000000112000,
|
||
01101200,
|
||
12201203,
|
||
01101200,
|
||
0000002202202000,
|
||
1011000010101000,
|
||
1000001201201000,
|
||
1011000010101000,
|
||
1012001120000000,
|
||
000000000000000000000500000000000000000000008000,
|
||
00022000,
|
||
1000001101101000,
|
||
0000001201201010,
|
||
000000000000000000000500000000000000000000008000,
|
||
00022000,
|
||
10200120,
|
||
1000200000102222,
|
||
1001001010100000,
|
||
1001002010201020,
|
||
1001001010100000,
|
||
1001001201201120,
|
||
10201120,
|
||
10201120,
|
||
10201120,
|
||
10000110,
|
||
3,
|
||
|
||
|
||
#END
|
||
|
||
|
||
#START P2
|
||
|
||
|
||
,
|
||
,
|
||
1200,
|
||
10000110,
|
||
1200,
|
||
10000110,
|
||
1,
|
||
1000002202202000,
|
||
1001001100101000,
|
||
1000002202202000,
|
||
1012000000112000,
|
||
1001001100101000,
|
||
1000002202202000,
|
||
1001001100101000,
|
||
10120011200000000,
|
||
12201203,
|
||
01101200,
|
||
12201200,
|
||
0000002202202000,
|
||
1000001201201000,
|
||
1011000010101000,
|
||
1000001201201000,
|
||
1012000000112000,
|
||
1011000010101000,
|
||
1000001201201000,
|
||
1011000010101000,
|
||
1012001201201120,
|
||
000000000000000000000500000000000000000000008000,
|
||
00022000,
|
||
10200120,
|
||
10200120,
|
||
000000000000000000000500000000000000000000008000,
|
||
00022000,
|
||
1000001101101000,
|
||
0000001201202222,
|
||
10201120,
|
||
10201120,
|
||
10201120,
|
||
1001001201201120,
|
||
1001001010100000,
|
||
1001002010201020,
|
||
1001001010100000,
|
||
10000110,
|
||
3,
|
||
|
||
|
||
#END
|
||
|
||
|
||
STYLE:Single
|
||
SCOREINIT:920
|
||
SCOREDIFF:250
|
||
|
||
|
||
#START
|
||
|
||
|
||
000000000000000000000000000000000000000000000000,
|
||
000000000000000000000000000000000000000000000000,
|
||
100000000000000000000000000000100000100000000000,
|
||
100000000000000000000000000000100000100000000000,
|
||
100000000000000000000000000000100000100000000000,
|
||
100000000000000000000000000000100000100000000000,
|
||
100000000000000000000000000000000000000000000000,
|
||
100000000100000000100100000000100000100000000000,
|
||
100000000100000000100100000000100000100000000000,
|
||
100000000100000000100100000000100000100000000000,
|
||
100000000100000000100100200000100000200000100000,
|
||
100000000100000000100100000000100000100000000000,
|
||
100000000100000000100100000000100000100000000000,
|
||
100000000100000000100100000000100000100000000000,
|
||
100000000100000000100100200000100000200000100000,
|
||
100000200000200000000000100000200000000000000000,
|
||
100000200000200000000000100000200000000000000000,
|
||
100000200000200000000000100000200000000000000000,
|
||
000000000000000000200200000200200000200000000000,
|
||
100000000100000000100200000100200000100000000000,
|
||
100000000100000000100200000100200000100100200000,
|
||
100000000100000000100200000100200000100000000000,
|
||
100000000100000000100100200000100000200000100000,
|
||
100000000100000000100200000100200000100000000000,
|
||
100000000100000000100200000100200000100100200000,
|
||
100000000100000000100200000100200000100000000000,
|
||
100000000100000000100200000100200000100000100000,
|
||
000000000000000000000500000000000000000000800000,
|
||
000000000000000000200000200000000000000000000000,
|
||
100000000000200000100100000100100000100000000000,
|
||
100000000000200000100200000100200000100000100000,
|
||
000000000000000000000500000000000000000000800000,
|
||
000000000000000000200000200000000000000000000000,
|
||
100000000000200000100100000100100000100000000000,
|
||
100000000000200000100200000100200000100100200200,
|
||
#GOGOSTART
|
||
100000000100000000100000100000100000000000000000,
|
||
100000000100000000100000100000100000200000200000,
|
||
100000000100000000100000100000100000000000000000,
|
||
100000000100000000100100000100100000200200200000,
|
||
100000000100000000100000100000100000000000000000,
|
||
100000000100000000100000100000100000200000200000,
|
||
100000000100000000100000100000100000000000000000,
|
||
100000000000000000000000000000100000100000000000,
|
||
#GOGOEND
|
||
300000000000000000000000000000000000000000000000,
|
||
|
||
|
||
#END
|
||
|
||
|
||
COURSE:Normal
|
||
LEVEL:2
|
||
|
||
STYLE:Double
|
||
SCOREINIT:1380
|
||
|
||
|
||
#START P1
|
||
|
||
|
||
,
|
||
,
|
||
10000110,
|
||
1,
|
||
00000110,
|
||
1,
|
||
1,
|
||
10001110,
|
||
1011,
|
||
0202,
|
||
0211,
|
||
10001110,
|
||
1011,
|
||
0202,
|
||
0211,
|
||
11002200,
|
||
00110000,
|
||
11002203,
|
||
00002220,
|
||
00001110,
|
||
0011,
|
||
11100000,
|
||
11100202,
|
||
00001110,
|
||
0011,
|
||
11100000,
|
||
11100011,
|
||
000000000000000000000500000000000000000000008000,
|
||
00022000,
|
||
10101100,
|
||
00001120,
|
||
100000000000000000000500000000000000000000008000,
|
||
00022000,
|
||
10101100,
|
||
00001120,
|
||
|
||
#GOGOSTART
|
||
10011100,
|
||
10011100,
|
||
10011100,
|
||
1011001010102000,
|
||
1022,
|
||
1022,
|
||
1022,
|
||
10000110,
|
||
|
||
#GOGOEND
|
||
3,
|
||
|
||
|
||
#END
|
||
|
||
|
||
#START P2
|
||
|
||
|
||
,
|
||
,
|
||
1,
|
||
00000110,
|
||
1,
|
||
00000110,
|
||
1,
|
||
0202,
|
||
0211,
|
||
10001110,
|
||
1011,
|
||
0202,
|
||
1011,
|
||
10001110,
|
||
1011,
|
||
00110000,
|
||
11002200,
|
||
00110003,
|
||
00002220,
|
||
11100000,
|
||
11100202,
|
||
00001110,
|
||
0011,
|
||
11100000,
|
||
11100202,
|
||
000011110,
|
||
00000011,
|
||
000000000000000000000500000000000000000000008000,
|
||
00022000,
|
||
00001100,
|
||
10101120,
|
||
100000000000000000000500000000000000000000008000,
|
||
00022000,
|
||
00001100,
|
||
10101120,
|
||
|
||
#GOGOSTART
|
||
1022,
|
||
1022,
|
||
1022,
|
||
1011001010102000,
|
||
10011100,
|
||
10011100,
|
||
10011100,
|
||
10000110,
|
||
|
||
#GOGOEND
|
||
3,
|
||
|
||
|
||
#END
|
||
|
||
|
||
STYLE:Single
|
||
SCOREINIT:820
|
||
SCOREDIFF:280
|
||
|
||
|
||
#START
|
||
|
||
|
||
000000000000000000000000000000000000000000000000,
|
||
000000000000000000000000000000000000000000000000,
|
||
100000000000000000000000000000100000100000000000,
|
||
100000000000000000000000000000100000100000000000,
|
||
100000000000000000000000000000100000100000000000,
|
||
100000000000000000000000000000100000100000000000,
|
||
100000000000000000000000000000000000000000000000,
|
||
100000000000000000000000100000100000100000000000,
|
||
100000000000000000000000100000000000100000000000,
|
||
100000000000000000000000100000100000100000000000,
|
||
100000000000000000000000100000000000100000000000,
|
||
100000000000000000000000100000100000100000000000,
|
||
100000000000000000000000100000000000100000000000,
|
||
100000000000000000000000100000100000100000000000,
|
||
100000000000000000000000100000000000100000000000,
|
||
100000100000100000000000200000200000000000000000,
|
||
100000100000100000000000200000200000000000000000,
|
||
100000100000100000000000200000200000000000000000,
|
||
200000000000200000000000200000000000200000000000,
|
||
100000000000000000000000100000100000100000000000,
|
||
100000000000000000000000100000100000200000000000,
|
||
100000000000000000000000100000100000100000000000,
|
||
100000000000000000000000100000100000200000200000,
|
||
100000000000000000000000100000100000100000000000,
|
||
100000000000000000000000100000100000200000000000,
|
||
100000000000000000000000100000100000100000000000,
|
||
100000000000000000000000100000100000200000200000,
|
||
000000000000000000000500000000000000000000800000,
|
||
000000000000000000200000200000000000000000000000,
|
||
100000000000100000100000100000000000200000000000,
|
||
100000000000100000100000100000000000200000200000,
|
||
000000000000000000000500000000000000000000800000,
|
||
000000000000000000200000200000000000000000000000,
|
||
100000000000100000100000100000000000200000000000,
|
||
100000000000100000100000100000000000200000000000,
|
||
#GOGOSTART
|
||
100000000000000000100000100000100000000000000000,
|
||
100000000000000000100000100000100000000000000000,
|
||
100000000000000000100000100000100000000000000000,
|
||
100000100100000000100000100000100000200000000000,
|
||
100000000000000000100000100000100000000000000000,
|
||
100000000000000000100000100000100000000000000000,
|
||
100000000000000000100000100000100000000000000000,
|
||
100000000000000000000000000000100000100000000000,
|
||
#GOGOEND
|
||
300000000000000000000000000000000000000000000000,
|
||
|
||
|
||
#END
|
||
|
||
|
||
COURSE:Easy
|
||
LEVEL:2
|
||
|
||
STYLE:Double
|
||
SCOREINIT:1500
|
||
|
||
|
||
#START P1
|
||
|
||
|
||
,
|
||
,
|
||
1100,
|
||
,
|
||
1100,
|
||
,
|
||
1,
|
||
1110,
|
||
1,
|
||
1110,
|
||
1,
|
||
0202,
|
||
0011,
|
||
0202,
|
||
00001110,
|
||
01,
|
||
11101000,
|
||
01,
|
||
2222,
|
||
0202,
|
||
0011,
|
||
0202,
|
||
00001110,
|
||
1110,
|
||
1,
|
||
1110,
|
||
1,
|
||
100000000000000000000500000000000000000000008000,
|
||
00011000,
|
||
1011,
|
||
1011,
|
||
100000000000000000000500000000000000000000008000,
|
||
00011000,
|
||
1011,
|
||
1011,
|
||
|
||
#GOGOSTART
|
||
10001100,
|
||
10001100,
|
||
10001100,
|
||
1011,
|
||
1022,
|
||
1022,
|
||
1022,
|
||
10000110,
|
||
|
||
#GOGOEND
|
||
3,
|
||
|
||
|
||
#END
|
||
|
||
|
||
#START P2
|
||
|
||
|
||
,
|
||
,
|
||
,
|
||
1100,
|
||
,
|
||
1100,
|
||
1,
|
||
0202,
|
||
0011,
|
||
0202,
|
||
00001110,
|
||
1110,
|
||
1,
|
||
1110,
|
||
1,
|
||
11101000,
|
||
01,
|
||
11101000,
|
||
2222,
|
||
1110,
|
||
1,
|
||
1110,
|
||
1,
|
||
0202,
|
||
0011,
|
||
0202,
|
||
00001110,
|
||
100000000000000000000500000000000000000000008000,
|
||
00011000,
|
||
1011,
|
||
1011,
|
||
100000000000000000000500000000000000000000008000,
|
||
00011000,
|
||
1011,
|
||
1011,
|
||
|
||
#GOGOSTART
|
||
1022,
|
||
1022,
|
||
1022,
|
||
1011,
|
||
10001100,
|
||
10001100,
|
||
10001100,
|
||
10000110,
|
||
|
||
#GOGOEND
|
||
3,
|
||
|
||
|
||
#END
|
||
|
||
|
||
STYLE:Single
|
||
SCOREINIT:960
|
||
SCOREDIFF:330
|
||
|
||
|
||
#START
|
||
|
||
|
||
000000000000000000000000000000000000000000000000,
|
||
000000000000000000000000000000000000000000000000,
|
||
100000000000100000000000000000000000000000000000,
|
||
100000000000100000000000000000000000000000000000,
|
||
100000000000100000000000000000000000000000000000,
|
||
100000000000100000000000000000000000000000000000,
|
||
100000000000000000000000000000000000000000000000,
|
||
100000000000100000000000100000000000000000000000,
|
||
100000000000000000000000000000000000000000000000,
|
||
100000000000100000000000100000000000000000000000,
|
||
100000000000000000000000100000100000100000000000,
|
||
100000000000100000000000100000000000000000000000,
|
||
100000000000000000000000000000000000000000000000,
|
||
100000000000100000000000100000000000000000000000,
|
||
100000000000000000000000100000000000100000000000,
|
||
100000100000100000000000100000000000000000000000,
|
||
100000100000100000000000100000000000000000000000,
|
||
100000100000100000000000100000000000000000000000,
|
||
200000000000200000000000200000000000200000000000,
|
||
100000000000100000000000100000000000000000000000,
|
||
100000000000000000000000000000000000000000000000,
|
||
100000000000100000000000100000000000000000000000,
|
||
100000000000000000000000100000100000100000000000,
|
||
100000000000100000000000100000000000000000000000,
|
||
100000000000000000000000000000000000000000000000,
|
||
100000000000100000000000100000000000000000000000,
|
||
100000000000000000000000000000000000100000100000,
|
||
000000000000000000000500000000000000000000800000,
|
||
000000000000000000100000100000000000000000000000,
|
||
100000000000000000000000100000000000100000000000,
|
||
100000000000000000000000100000000000100000000000,
|
||
100000000000000000000500000000000000000000800000,
|
||
000000000000000000100000100000000000000000000000,
|
||
100000000000000000000000100000000000100000000000,
|
||
100000000000000000000000100000000000100000000000,
|
||
#GOGOSTART
|
||
100000000000000000000000100000100000000000000000,
|
||
100000000000000000000000100000100000000000000000,
|
||
100000000000000000000000100000100000000000000000,
|
||
100000000000000000000000100000000000100000000000,
|
||
100000000000000000000000100000100000000000000000,
|
||
100000000000000000000000100000100000000000000000,
|
||
100000000000000000000000100000100000000000000000,
|
||
100000000000000000000000000000100000100000000000,
|
||
#GOGOEND
|
||
300000000000000000000000000000000000000000000000,
|
||
|
||
|
||
#END
|
||
|