Files
2023-06-15 19:00:23 -05:00

521 lines
20 KiB
Plaintext
Raw Permalink Blame History

This file contains ambiguous Unicode characters
This file contains Unicode characters that might be confused with other characters. If you think that this is intentional, you can safely ignore this warning. Use the Escape button to reveal them.
//TJADB Project
TITLE:Junjou ~Sunjeong~
TITLEJA:純情~スンジョン~
SUBTITLE:--DJ OZMA
BPM:137
WAVE:Junjou ~Sunjeong~.ogg
OFFSET:-2.048
DEMOSTART:87.887
COURSE:Oni
LEVEL:7
BALLOON:15
SCOREINIT:610
SCOREDIFF:110
#START
200000000000200000000000200000000000300000000000,
100000000000100000000000100000100000200000000000,
200200200000200100200200100000100000200000200000,
100000000000100000000000100000100000200000000000,
200200200000200100200200100000200000100000200000,
100000000000100000000000100000100000200000000000,
200200000200200100200200100000100000200000200000,
300000000000000000000000300000000000000000000000,
300000000000300000000000300000000000300000000000,
#GOGOSTART
100000100100200000200200100000100000200000000000,
100000200200200000200200100000100000200000000000,
100000100100200000200200100000200000100000200000,
500000000000000000000000000000000008000000000000,
100000100100200000200200100000100000200000000000,
100000200200200000200200100000200000200000000000,
100000100100200000200200100000200000100000200000,
400000000000400000000000400000000000400000000000,
#GOGOEND
100000100100200000100000100000100100200000100000,
100000100100200000100000200000200200200000200000,
100000100100200000100000100000100100200000200000,
100000100100200000100000200200200200200000200000,
100000100100200000200000100000100100200000200000,
100100200000100200200000100000100000000000200000,
000000500000000000000000000000000000000000000008,
000000000000000000000000000000000000000000000000,
100000200200100000200000100000200200100000200000,
100000100000200000000000200000000000200000000000,
100000200200100000200000100000200200100000200000,
100000100000200000000000200000000000200000000000,
100000200200100000200200100000200200100000200200,
100200200200100200200200100200200200100200200200,
500000000000000000000000000008000000000000000000,
100000100100100000000000400000300000400000300000,
100000100100200000100000100000100100200000100000,
100000100100200000100000200000200200200000200000,
100000100100200000100000100000100100200000200000,
100000100100200000100000200200200200200000200000,
100000100100200000200000100000100100200000200000,
100100200000100200200000100000100000000000200000,
000000700000000000000000000000000000000000000000,
8,
100000200200100000200000100000200200100000200000,
100000100000200000000000200000000000200000000000,
100000200200100000200000100000200200100000200000,
100000100000200000000000200000000000200000000000,
100000200200100000200200100000200200100000200200,
100200200200100200200200100200200200100200200200,
500000000000000000000000000000000008000000000000,
300000000000400000000000300000300000400000400000,
#GOGOSTART
100100100100200000200200100000100000200000000000,
100100200200200000200200100000200000200000000000,
100100100100200000200200100000200000100000200000,
100000200200200000200000100000200200200000200000,
100100100100200000200200100000100000200000000000,
100100200200200000200200100000200000200000000000,
100100100100200000200200100000200000100000200000,
400000000000400000000000400000000000400000000000,
100100100100200000200200100000300000400000000000,
100100200200200000200200100000400000400000000000,
100100100100200000200200100000200200200000200000,
300000400000300000400000300000400000300000400000,
100100100100200000200200100000300000400000000000,
100100200200200000200200100000400000400000000000,
100100100100200000200200100000100200200000200000,
500000000000000000000000000000000000000000000008,
#GOGOEND
#END
COURSE:Hard
LEVEL:6
BALLOON:12
SCOREINIT:600
SCOREDIFF:130
#START
200000000000200000000000200000000000300000000000,
100000000000100000000000100000100000200000000000,
100100100000100000000000100000100000200000000000,
100000000000100000000000100000100000200000000000,
200200200000200000000000100000100000200000000000,
100000000000100000000000100000100000200000000000,
100100100000100000000000100000100000200000000000,
300000000000000000000000300000000000000000000000,
300000000000300000000000300000000000300000000000,
#GOGOSTART
100000100100100000200000100000100000200000000000,
100000100100100000200000100000200000200000000000,
100000100100100000200000100000200000100000000000,
500000000000000000000000000000000800000000000000,
100000100100100000200000100000100000200000000000,
100000100100100000200000100000200000200000000000,
100000100100100000200000100000200000100000000000,
400000000000400000000000400000000000400000000000,
#GOGOEND
100000100000200000000000100000100000200000000000,
100000100000200000200000100000000000100000000000,
100000100000200000000000100000100000200000000000,
100000100000200000200000100000200000000000000000,
100000100000200000200000100000100000200000200000,
100000200000100000200000100000100000000000200000,
000000500000000000000000000000000000000000000800,
000000000000000000000000000000000000000000000000,
100000100100100000100000100000100100100000100000,
100000000000200000000000200000000000200000000000,
100000100100100000100000100000100100100000100000,
100000000000200000000000200000000000200000000000,
100000100100100000100000100000100100100000100000,
100000100100100000100000100000100100100000100000,
500000000000000000000000000800000000000000000000,
100000100100100000000000400000000000400000000000,
100000100000200000000000100000100000200000000000,
100000100000200000200000100000100000000000000000,
100000100000200000000000100000100000200000000000,
100000100000200000200000100000200000000000000000,
100000100000200000200000100000100000200000200000,
100000200000100000200000100000100000000000200000,
000000700000000000000000000000000000000000000800,
000000000000000000000000000000000000000000000000,
100000100100100000100000100000100100100000100000,
100000000000200000000000200000000000200000000000,
100000100100100000100000100000100100100000100000,
100000000000200000000000200000000000200000000000,
100000100100100000100000100000100100100000100000,
100000100100100000100000100000100100100000500000,
000000000000000000000000000000000000000000000800,
000000000000000000000000000000000000000000000000,
#GOGOSTART
100000100100100000200000100000100000200000000000,
100000100100100000200000100000200000200000000000,
100000100100100000200000100000200000100000000000,
500000000000000000000000000000000800000000000000,
100000100100100000200000100000100000200000000000,
100000100100100000200000100000200000200000000000,
100000100100100000200000100000200000100000000000,
400000000000400000000000400000000000400000000000,
100000100100100000200000100000000000400000000000,
100000100100100000200000100000400000400000000000,
100000000000000000200000200000200200200000200000,
300000000000300000000000300000000000300000000000,
100000100100100000200000100000000000400000000000,
100000100100100000200000100000400000400000000000,
100000000000000000200000200000200200200000200000,
500000000000000000000000000000000000000000000800,
#GOGOEND
#END
COURSE:Normal
LEVEL:3
STYLE:Double
BALLOON:8,12
SCOREINIT:620
SCOREDIFF:160
#START P1
000000000000000000000000000000000000000000000000,
100000000000000000000000100000000000200000000000,
100000000000100000000000100000100000100000000000,
100000000000000000000000100000000000200000000000,
100000000000100000000000200000200000200000000000,
100000000000000000000000100000000000200000000000,
100000000000100000000000100000100000100000000000,
300000000000000000000000300000000000000000000000,
300000000000300000000000300000000000300000000000,
#GOGOSTART
100000000000000000100000100000000000000000000000,
100000000000000000100000100000000000000000000000,
100000000000000000000000100000000000100000000000,
500000000000000000000000000000800000000000000000,
100000000000000000100000100000000000000000000000,
100000000000000000100000100000000000000000000000,
100000000000000000000000100000000000100000000000,
400000000000400000000000400000000000400000000000,
#GOGOEND
100000000000100000000000100000000000000000000000,
100000000000200000000000100000000000000000000000,
100000000000100000000000100000000000000000000000,
200000000000200000000000200000000000000000000000,
100000000000100000000000100000000000000000000000,
100000000000200000000000100000000000000000500000,
000000000000000000000000000000000000000000800000,
000000000000000000000000000000000000000000000000,
100000000000100000000000100000000000100000000000,
100000000000200000000000200000000000200000000000,
100000000000100000000000100000000000100000000000,
100000000000200000000000200000000000200000000000,
100000000000100000000000100000000000100000000000,
200000000000200000000000200000000000200000000000,
700000000000000000000000000000000000000000800000,
000000000000000000000000400000000000400000000000,
100000000000100000000000100000000000000000000000,
100000000000200000000000100000000000000000000000,
100000000000100000000000100000000000000000000000,
200000000000200000000000200000000000000000000000,
100000000000100000000000100000000000000000000000,
100000000000200000000000100000000000000000900000,
,
8,
100000000000100000000000100000000000100000000000,
100000000000200000000000200000000000200000000000,
100000000000100000000000100000000000100000000000,
100000000000200000000000200000000000200000000000,
100000000000100000000000100000000000100000000000,
200000000000200000000000200000000000200000000000,
500000000000000000000000000000000000000000800000,
000000000000000000000000000000000000000000000000,
#GOGOSTART
300000000000000000300000300000000000000000000000,
300000000000000000300000300000000000000000000000,
300000000000000000000000300000000000300000000000,
500000000000000000000000000000800000000000000000,
300000000000000000300000300000000000000000000000,
300000000000000000300000300000000000000000000000,
300000000000000000000000300000000000300000000000,
400000000000400000000000400000000000400000000000,
500000000000000000800000000000000000400000000000,
500000000000800000000000000000400000400000000000,
100000000000000000000000200000000000200000000000,
300000000000300000000000300000000000300000000000,
30033000,
30033000,
1022,
3333,
500000000000000008000000000000000000400000000000,
500000000000000008000000000000400000400000000000,
1022,
500000000000000000000000000000000000000000000008,
#GOGOEND
#END
#START P2
000000000000000000000000000000000000000000000000,
100000000000000000000000100000000000200000000000,
100000000000100000000000100000100000100000000000,
100000000000000000000000100000000000200000000000,
100000000000100000000000200000200000200000000000,
100000000000000000000000100000000000200000000000,
100000000000100000000000100000100000100000000000,
300000000000000000000000300000000000000000000000,
300000000000300000000000300000000000300000000000,
#GOGOSTART
100000000000000000100000100000000000000000000000,
100000000000000000100000100000000000000000000000,
100000000000000000000000100000000000100000000000,
500000000000000000000000000000800000000000000000,
100000000000000000100000100000000000000000000000,
100000000000000000100000100000000000000000000000,
100000000000000000000000100000000000100000000000,
400000000000400000000000400000000000400000000000,
#GOGOEND
100000000000100000000000100000000000000000000000,
100000000000200000000000100000000000000000000000,
100000000000100000000000100000000000000000000000,
200000000000200000000000200000000000000000000000,
100000000000100000000000100000000000000000000000,
100000000000200000000000100000000000000000500000,
000000000000000000000000000000000000000000800000,
000000000000000000000000000000000000000000000000,
100000000000100000000000100000000000100000000000,
100000000000200000000000200000000000200000000000,
100000000000100000000000100000000000100000000000,
100000000000200000000000200000000000200000000000,
100000000000100000000000100000000000100000000000,
200000000000200000000000200000000000200000000000,
700000000000000000000000000000000000000000800000,
000000000000000000000000400000000000400000000000,
100000000000100000000000100000000000000000000000,
100000000000200000000000100000000000000000000000,
100000000000100000000000100000000000000000000000,
200000000000200000000000200000000000000000000000,
100000000000100000000000100000000000000000000000,
100000000000200000000000100000000000000000900000,
,
8,
100000000000100000000000100000000000100000000000,
100000000000200000000000200000000000200000000000,
100000000000100000000000100000000000100000000000,
100000000000200000000000200000000000200000000000,
100000000000100000000000100000000000100000000000,
200000000000200000000000200000000000200000000000,
500000000000000000000000000000000000000000800000,
000000000000000000000000000000000000000000000000,
#GOGOSTART
300000000000000000300000300000000000000000000000,
300000000000000000300000300000000000000000000000,
300000000000000000000000300000000000300000000000,
500000000000000000000000000000800000000000000000,
300000000000000000300000300000000000000000000000,
300000000000000000300000300000000000000000000000,
300000000000000000000000300000000000300000000000,
400000000000400000000000400000000000400000000000,
500000000000000000800000000000000000400000000000,
500000000000800000000000000000400000400000000000,
100000000000000000000000200000000000200000000000,
300000000000300000000000300000000000300000000000,
500000000000000008000000000000000000400000000000,
500000000000000008000000000000400000400000000000,
1022,
3333,
10011000,
10011000,
1022,
500000000000000000000000000000000000000000000008,
#GOGOEND
#END
STYLE:Single
BALLOON:8,12,5,4
SCOREINIT:620
SCOREDIFF:160
#START
000000000000000000000000000000000000000000000000,
100000000000000000000000100000000000200000000000,
100000000000100000000000100000100000100000000000,
100000000000000000000000100000000000200000000000,
100000000000100000000000200000200000200000000000,
100000000000000000000000100000000000200000000000,
100000000000100000000000100000100000100000000000,
300000000000000000000000300000000000000000000000,
300000000000300000000000300000000000300000000000,
#GOGOSTART
100000000000000000100000100000000000000000000000,
100000000000000000100000100000000000000000000000,
100000000000000000000000100000000000100000000000,
500000000000000000000000000000800000000000000000,
100000000000000000100000100000000000000000000000,
100000000000000000100000100000000000000000000000,
100000000000000000000000100000000000100000000000,
400000000000400000000000400000000000400000000000,
#GOGOEND
100000000000100000000000100000000000000000000000,
100000000000200000000000100000000000000000000000,
100000000000100000000000100000000000000000000000,
200000000000200000000000200000000000000000000000,
100000000000100000000000100000000000000000000000,
100000000000200000000000100000000000000000500000,
000000000000000000000000000000000000000000800000,
000000000000000000000000000000000000000000000000,
100000000000100000000000100000000000100000000000,
100000000000200000000000200000000000200000000000,
100000000000100000000000100000000000100000000000,
100000000000200000000000200000000000200000000000,
100000000000100000000000100000000000100000000000,
200000000000200000000000200000000000200000000000,
700000000000000000000000000000000000000000800000,
000000000000000000000000400000000000400000000000,
100000000000100000000000100000000000000000000000,
100000000000200000000000100000000000000000000000,
100000000000100000000000100000000000000000000000,
200000000000200000000000200000000000000000000000,
100000000000100000000000100000000000000000000000,
100000000000200000000000100000000000000000900000,
,
8,
100000000000100000000000100000000000100000000000,
100000000000200000000000200000000000200000000000,
100000000000100000000000100000000000100000000000,
100000000000200000000000200000000000200000000000,
100000000000100000000000100000000000100000000000,
200000000000200000000000200000000000200000000000,
500000000000000000000000000000000000000000800000,
000000000000000000000000000000000000000000000000,
#GOGOSTART
300000000000000000300000300000000000000000000000,
300000000000000000300000300000000000000000000000,
300000000000000000000000300000000000300000000000,
500000000000000000000000000000800000000000000000,
300000000000000000300000300000000000000000000000,
300000000000000000300000300000000000000000000000,
300000000000000000000000300000000000300000000000,
400000000000400000000000400000000000400000000000,
500000000000000000800000000000000000400000000000,
500000000000800000000000000000400000400000000000,
100000000000000000000000200000000000200000000000,
300000000000300000000000300000000000300000000000,
700000000000000000800000000000000000400000000000,
700000000000000800000000000000400000400000000000,
100000000000000000000000200000000000200000000000,
500000000000000000000000000000000000000000800000,
#GOGOEND
#END
COURSE:Easy
LEVEL:3
BALLOON:6,8
SCOREINIT:600
SCOREDIFF:170
#START
000000000000000000000000000000000000000000000000,
300000000000000000000000000000000000000000000000,
100000000000100000000000100000000000000000000000,
300000000000000000000000000000000000000000000000,
200000000000200000000000200000000000000000000000,
300000000000000000000000000000000000000000000000,
100000000000100000000000100000000000000000000000,
200000000000000000000000200000000000000000000000,
400000000000000000000000400000000000000000000000,
#GOGOSTART
100000000000000000000000100000000000000000000000,
100000000000000000000000100000000000000000000000,
100000000000000000000000100000000000100000000000,
500000000000000000000000800000000000000000000000,
100000000000000000000000100000000000000000000000,
100000000000000000000000100000000000000000000000,
100000000000000000000000100000000000100000000000,
500000000000000000000000800000000000000000000000,
#GOGOEND
100000000000100000000000100000000000000000000000,
100000000000000000000000100000000000000000000000,
100000000000100000000000100000000000000000000000,
100000000000000000000000200000000000000000000000,
100000000000100000000000100000000000000000000000,
100000000000000000000000200000000000000000500000,
000000000000000000000000000000000000000000800000,
000000000000000000000000000000000000000000000000,
100000000000100000000000100000000000100000000000,
100000000000000000000000000000000000000000000000,
200000000000200000000000200000000000200000000000,
200000000000000000000000000000000000000000000000,
100000000000100000000000100000000000100000000000,
100000000000100000000000100000000000100000000000,
700000000000000000000000000000000000000000800000,
000000000000000000000000000000000000000000000000,
100000000000100000000000100000000000000000000000,
100000000000000000000000100000000000000000000000,
100000000000100000000000100000000000000000000000,
100000000000000000000000200000000000000000000000,
100000000000100000000000100000000000000000000000,
100000000000000000000000200000000000000000900000,
,
8,
100000000000100000000000100000000000100000000000,
100000000000000000000000000000000000000000000000,
200000000000200000000000200000000000200000000000,
200000000000000000000000000000000000000000000000,
100000000000100000000000100000000000100000000000,
100000000000100000000000100000000000100000000000,
500000000000000000000000000000000000000000800000,
000000000000000000000000000000000000000000000000,
#GOGOSTART
300000000000000000000000300000000000000000000000,
300000000000000000000000300000000000000000000000,
300000000000000000000000300000000000300000000000,
500000000000000000000000800000000000000000000000,
300000000000000000000000300000000000000000000000,
300000000000000000000000300000000000000000000000,
300000000000000000000000300000000000300000000000,
500000000000000000000000000000800000000000000000,
000000000000000000000000000000000000400000000000,
000000000000000000000000000000400000400000000000,
100000000000000000000000200000000000000000000000,
300000000000300000000000300000000000300000000000,
000000000000000000000000000000000000400000000000,
000000000000000000000000000000400000400000000000,
100000000000000000000000200000000000000000000000,
500000000000000000000000000000000000000000800000,
#GOGOEND
#END