Files
2023-06-15 19:15:39 -05:00

304 lines
12 KiB
Plaintext

//TJADB Project
TITLE:Karon
TITLEJA:カロン
SUBTITLE:--Negoto/LISMO
SUBTITLEJA:au「LISMO!」CMソング
BPM:146
WAVE:Karon.ogg
OFFSET:-1.805
DEMOSTART:53.997
COURSE:Oni
LEVEL:6
SCOREINIT:770
SCOREDIFF:220
#START
200000200000200000200000000000000000000000000000,
200000200000200000200000000000000000000000000000,
200000200000200000200000000000000000000000000000,
200000200000200000200000100100100000100100100000,
200000200000200000200000100000000000200200000000,
200000200000200000200000100000000000200200000000,
200000200000200000200000100000000000200200000000,
200000200000200000200000100000000000200200000000,
100000000000200000100100100000100000200000100000,
000000100000200000100100100000100000200000100000,
100000000000200000100100100000100000200000100000,
000000100000200000100100100000100000200000000000,
100000000000200000100100100000100000200000100000,
000000100000200000100100100000100000200000100000,
100000000000200000100100100000100000200000200000,
000000000000200000200000000000000000100100100000,
100000000000200000100100100000100000200000100000,
000000100000200000100100100000100000200000100000,
100000000000200000100100100000100000200000100000,
000000100000200000100100100000100000200000000000,
100000000000200000100100100000100000200000100000,
000000100000200000100100100000100000200000100000,
100000000000200000100100100000100000200000200000,
000000000000200000200000100100100000100100100000,
100100100000100100100000100000000000200000000000,
100100100000100100100000100000000000200000000000,
100100100000100100100000100000000000200000000000,
100000100000100100100000000000000000000000000000,
100100100000100100100000200000000000200000000000,
100000100100100100100000200000000000100000000000,
100100100000100100100000100100100000100100100000,
500000000000000000000000000008000000000000000000,
#GOGOSTART
300000100000200000000100100000100000200000000100,
100000100000200000000100100000100000200000100100,
100000100000200000000100100000100000500000000000,
000000000000000000000008000000000000300000000000,
300000000000400000000000300000000000400000000000,
300000000000400000000000300000000000400000000000,
300000000000200000000100100000100000200000100000,
000000500000000000000000000000000008000000000000,
300000000000200000000100100000100000200000000100,
100000100000200000000100100000100000200000100100,
100000100000200000000100100000100000200000000000,
100000200000200000100000100100100000100100100000,
300000000000200000000100100000100000200000100100,
100000000000200000000100100000100000200000000000,
500000000000000000000000000008000000100000100000,
100100100000100100100000100100100000100100100000,
#GOGOEND
300000000000000000000000000000000000000000000000,
000000000000000000000000000000000000000000000000,
200000200000200000200000000000000000100000200000,
200000200000200000200000000000000000200200000000,
200000200000200000200000000000000000100000200000,
200000200000200000200000000000000000200000000000,
200000200000200000200000000000000000100000200000,
200000200000200000100000100100100000100100100000,
300000000000000000000000000000000000000000000000,
#END
COURSE:Hard
LEVEL:5
SCOREINIT:860
SCOREDIFF:265
#START
000000000000000000000000000000000000000000000000,
000000000000000000000000000000000000000000000000,
200000200000200000200000000000000000000000000000,
200000200000200000200000000000000000000000000000,
100000100000200000200000000000000000000000000000,
100000100000200000200000000000000000000000000000,
100000100000200000200000000000000000000000000000,
100000100000200000200000000000000000000000000000,
100000000000200000000000100000100000200000000000,
100000100000200000000000100000000000200000000000,
100000000000200000000000100000100000200000000000,
100000100000200000000000100000000000200000000000,
100000100000200000000000100000100000200000000000,
100000100000200000000000100000000000200000000000,
100000000000000000000000000000000000200000200000,
000000000000200000200000000000000000000000000000,
100000000000200000000000100000100000200000000000,
100000100000200000000000100000000000200000000000,
100000000000200000000000100000100000200000000000,
100000100000200000000000100000000000200000000000,
100000100000200000000000100000100000200000000000,
100000100000200000000000100000000000200000000000,
100000000000000000000000000000000000200000200000,
000000000000200000200000000000000000000000000000,
100000000000100100100000100000000000200000000000,
100000000000100100100000100000000000200000000000,
100000000000100100100000100000000000200000000000,
100000000000200000000000000000000000000000000000,
100000000000100100100000100000100000200000000000,
100000000000100100100000100000100000200000000000,
100000000000100100100000100100100000100100100000,
500000000000000000000000000800000000000000000000,
#GOGOSTART
100000000000200000100100100000100000200000000000,
100000000000200000100100100000100000200000000000,
100000000000200000100100100000100000500000000000,
000000000000000000000800000000000000400000000000,
300000000000400000000000300000000000400000000000,
300000000000400000000000300000000000400000000000,
100000000000200000100100100000100000200000100000,
000000500000000000000000000000000800000000000000,
100000000000200000100100100000100000200000000000,
100000000000200000100100100000100000200000000000,
100000000000200000100100100000100000500000000000,
000000000000000000000800000000000000000000000000,
100000100000200000000000100000100000200000000000,
100000100000200000000000100000100000200000000000,
100000200000100000200000100000200000100000200000,
100000200000100000200000100000200000100000200000,
#GOGOEND
100000000000000000000000000000000000000000000000,
100000100000200000200000000000000000000000000000,
100000100000200000200000000000000000200000000000,
100000100000200000200000000000000000000000000000,
100000100000200000200000000000000000200000000000,
100000100000200000200000000000000000000000000000,
100000100000200000200000000000000000200000000000,
100000100000200000200000100000100100100000000000,
300000000000000000000000000000000000000000000000,
#END
COURSE:Normal
LEVEL:3
BALLOON:8,5
SCOREINIT:1000
SCOREDIFF:380
#START
000000000000000000000000000000000000000000000000,
000000000000000000000000000000000000000000000000,
200000000000200000200000000000000000000000000000,
200000000000200000200000000000000000000000000000,
100000000000200000200000000000000000000000000000,
100000000000200000200000000000000000000000000000,
100000000000200000200000000000000000000000000000,
100000000000200000200000000000000000000000000000,
100000000000000000000000100000000000200000000000,
100000000000100000000000200000000000000000000000,
100000000000000000000000100000000000200000000000,
100000000000100000000000200000000000000000000000,
100000000000200000000000100000000000200000000000,
100000000000200000000000100000000000200000000000,
100000000000000000000000000000000000200000200000,
000000000000200000200000000000000000000000000000,
100000000000000000000000100000000000200000000000,
100000000000100000000000200000000000000000000000,
100000000000000000000000100000000000200000000000,
100000000000100000000000200000000000000000000000,
100000000000200000000000100000000000200000000000,
100000000000200000000000100000000000200000000000,
100000000000000000000000000000000000200000200000,
000000000000200000200000000000000000000000000000,
100000000000100000000000200000000000200000000000,
100000000000100000000000200000000000000000000000,
100000000000100000000000200000000000200000000000,
100000000000000000000000000000000000000000000000,
100000000000100000000000200000000000200000000000,
100000000000100000000000200000000000000000000000,
100000000000100000000000200000000000200000000000,
700000000000000000000000000000000000800000000000,
#GOGOSTART
100000000000200000000000100000000000200000000000,
100000000000100000000000200000000000000000000000,
100000000000200000000000100000000000500000000000,
000000000000000000000080000000000000000000000000,
300000000000000000000000300000000000000000000000,
300000000000000000000000300000000000300000000000,
300000000000000000000000000000000000000000000000,
500000000000000000000080000000000000000000000000,
100000000000200000000000100000000000200000000000,
100000000000100000000000200000000000000000000000,
100000000000200000000000100000000000500000000000,
000000000000000000000080000000000000000000000000,
100000000000200000000000100000000000200000000000,
100000000000200000000000100000000000000000000000,
100000000000200000000000100000000000200000000000,
100000000000200000000000100000100000100000000000,
#GOGOEND
100000000000000000000000000000000000000000000000,
000000000000000000000000000000000000000000000000,
200000000000200000200000000000000000000000000000,
200000000000200000200000000000000000000000000000,
100000000000200000200000000000000000000000000000,
100000000000200000200000000000000000000000000000,
200000000000200000200000000000000000000000000000,
200000000000200000200000700000000000000000800000,
#END
COURSE:Easy
LEVEL:3
BALLOON:5,4
SCOREINIT:900
SCOREDIFF:455
#START
000000000000000000000000000000000000000000000000,
000000000000000000000000000000000000000000000000,
200000000000200000000000000000000000000000000000,
200000000000200000000000000000000000000000000000,
200000000000200000000000000000000000000000000000,
200000000000200000000000000000000000000000000000,
200000000000200000000000000000000000000000000000,
200000000000200000000000000000000000000000000000,
100000000000100000000000100000000000000000000000,
100000000000000000000000200000000000000000000000,
100000000000100000000000100000000000000000000000,
100000000000000000000000200000000000000000000000,
100000000000100000000000100000000000000000000000,
100000000000100000000000100000000000000000000000,
100000000000000000000000000000000000000000000000,
000000000000000000000000000000000000000000000000,
100000000000100000000000100000000000000000000000,
100000000000000000000000200000000000000000000000,
100000000000100000000000100000000000000000000000,
100000000000000000000000200000000000000000000000,
100000000000100000000000100000000000000000000000,
100000000000100000000000100000000000000000000000,
100000000000000000000000000000000000000000000000,
000000000000000000000000000000000000000000000000,
100000000000100000000000100000000000100000000000,
100000000000100000000000100000000000000000000000,
100000000000100000000000100000000000100000000000,
100000000000000000000000000000000000000000000000,
100000000000100000000000100000000000100000000000,
100000000000100000000000100000000000000000000000,
100000000000100000000000100000000000100000000000,
500000000000000000000080000000000000000000000000,
#GOGOSTART
100000000000100000000000100000000000000000000000,
100000000000100000000000200000000000000000000000,
100000000000100000000000100000000000500000000000,
000000000000000000000080000000000000000000000000,
300000000000000000000000300000000000000000000000,
300000000000000000000000300000000000000000000000,
600000000000000000000080000000000000000000000000,
300000000000000000000000000000000000000000000000,
100000000000100000000000100000000000000000000000,
100000000000100000000000200000000000000000000000,
100000000000100000000000100000000000500000000000,
000000000000000000000080000000000000000000000000,
100000000000000000000000200000000000000000000000,
100000000000000000000000200000000000000000000000,
100000000000000000000000200000000000000000000000,
100000000000100000000000100000000000100000000000,
#GOGOEND
700000000000000000000000000000000000000000800000,
000000000000000000000000000000000000000000000000,
200000000000200000000000000000000000000000000000,
200000000000200000000000000000000000000000000000,
200000000000200000000000000000000000000000000000,
200000000000200000000000000000000000000000000000,
200000000000200000000000000000000000000000000000,
200000000000200000000000700000000000000000800000,
#END