Files
2023-01-17 00:45:18 -05:00

351 lines
4.2 KiB
Plaintext

//TJADB Project
TITLE:Kaze ga Fuiteiru
TITLEJA:風が吹いている
SUBTITLE:--Ikimono-gakari/The London Olympics
SUBTITLEJA:NHKロンドンオリンピック放送 テーマソング
BPM:89
WAVE:Kaze ga Fuiteiru.ogg
OFFSET:-3.025
DEMOSTART:5.720
COURSE:Oni
LEVEL:7
BALLOON:45,45
SCOREINIT:490
SCOREDIFF:100
#START
,
#GOGOSTART
1011201202112011,
1011202211102022,
1011201202112011,
1011202211102022,
1011201210112022,
1011201210112022,
1011201210112122,
1022100030003000,
1011201202112011,
1011202211102022,
1011201202112011,
1011202211102022,
1011201210112022,
1011201210112011,
1022101022112011,
1022101010101120,
7,
08,
#GOGOEND
1010201202102000,
1010201212102000,
1010201202102022,
1010201000102111,
1010211210102111,
1010211210102011,
1011202102102000,
500000000000000000000000000000000008000000000000,
1010201202102000,
1010201212102000,
1010201202102022,
1010201000102111,
1010211210102111,
1010211210102021,
1011202102102010,
0000000010101111,
1020112010101110,
1020112010101110,
1020112010101110,
1020112010112020,
11211121,
11211121,
1110201011102010,
1110111030303030,
600000000000000000000000000000000008000000000000,
33,
#GOGOSTART
1011201202112011,
1011202211102022,
1011201202112011,
1011202211102022,
1011201210112022,
1011201210112022,
1011201210112122,
1022100030003000,
1011201212102011,
1011202211102022,
1011201212102011,
1011202211102022,
1011201210112022,
1011201210112011,
1022101022112211,
1022101011111120,
7,
08,
#GOGOEND
#END
COURSE:Hard
LEVEL:6
BALLOON:32,32
SCOREINIT:560
SCOREDIFF:130
#START
,
#GOGOSTART
1010201011102010,
1010201011102000,
1010201011102010,
1010201011102000,
1010101110000000,
2020202220000000,
1010101110000000,
3333,
1010201011102010,
1010201011102000,
1010201011102010,
1010201011102000,
1010101110000000,
2020202220000000,
5008,
4010101010101110,
7,
08,
#GOGOEND
1010101101101000,
1010101102202000,
1010101101101000,
11210120,
11201120,
1110200011102000,
1010101101102000,
5008,
1010101101101000,
1010101102202000,
1010101101101000,
11210120,
11201120,
1110200011102000,
500000000000000000000000000000000000000000000008,
,
1010112000000000,
1010112000000000,
1010112010101110,
50080000,
11211120,
11211120,
11211121,
11113333,
6008,
33,
#GOGOSTART
1010201011102010,
1010201011102000,
1010201011102010,
1010201011102000,
1010101110000000,
2020202220000000,
1010101110000000,
3333,
1010201011102010,
1010201011102000,
1010201011102010,
1010201011102000,
1010101110000000,
2020202220000000,
11210120,
4010101010101110,
9,
0008,
#GOGOEND
#END
COURSE:Normal
LEVEL:4
BALLOON:25,25
SCOREINIT:620
SCOREDIFF:140
#START
,
#GOGOSTART
11201120,
50080000,
11201120,
1212,
11111000,
22222000,
11111000,
33,
11201120,
50080000,
11201120,
1212,
11111000,
22222000,
50000800,
40101111,
7,
08,
#GOGOEND
10101110,
10102220,
10101110,
10210120,
10201120,
10201120,
10101120,
5008,
10101110,
10102220,
10101110,
10210120,
10201120,
10201120,
500000000000000000000000000000000000000000000008,
,
1010111000000000,
2020222000000000,
1010111000000000,
50080000,
10101110,
10101110,
11101110,
11103330,
6008,
33,
#GOGOSTART
11201120,
50080000,
11201120,
1212,
11111000,
22222000,
11111000,
33,
11201120,
50080000,
11201120,
1212,
11111000,
22222000,
50000800,
40101111,
9,
0008,
#GOGOEND
#END
COURSE:Easy
LEVEL:3
BALLOON:5,5,20,5,5,20
SCOREINIT:580
SCOREDIFF:90
#START
,
#GOGOSTART
10101110,
50080000,
10101110,
78,
11101000,
22202000,
11101000,
33,
10101110,
50080000,
10101110,
78,
11101000,
22202000,
58,
10101110,
7,
08,
#GOGOEND
10101100,
10102200,
10101100,
50080000,
1210,
1210,
1110,
5000000008000000,
10101100,
10102200,
10101100,
50080000,
1210,
1210,
50000008,
11110000,
22220000,
11110000,
50080000,
1110,
1110,
1111,
11101110,
,
60000800,
33,
#GOGOSTART
10101110,
50080000,
10101110,
78,
11101000,
22202000,
11101000,
33,
10101110,
50080000,
10101110,
78,
11101000,
22202000,
50000800,
10101110,
9,
0008,
#GOGOEND
#END