forked from ESE/ESE
861 lines
18 KiB
Plaintext
861 lines
18 KiB
Plaintext
//TJADB Project
|
|
TITLE:Killer Queen
|
|
TITLEJA:キラー・クイーン
|
|
SUBTITLE:--Queen
|
|
SUBTITLEJA:映画「ブレイブ・ストーリー」主題歌
|
|
BPM:113
|
|
WAVE:Killer Queen.ogg
|
|
OFFSET:-2.241
|
|
DEMOSTART:12.773
|
|
|
|
COURSE:Oni
|
|
LEVEL:5
|
|
BALLOON:4
|
|
|
|
|
|
#START
|
|
|
|
|
|
#SCROLL 1.0176991150442478
|
|
000000000000
|
|
#BPMCHANGE 109
|
|
#SCROLL 1.055045871559633
|
|
000000000000
|
|
#BPMCHANGE 114
|
|
#SCROLL 1.0087719298245614
|
|
000000000000000000000000,
|
|
#BPMCHANGE 111
|
|
#SCROLL 1.0360360360360361
|
|
100000000000200000000000200000000000000000000000,
|
|
#BPMCHANGE 110.75
|
|
#SCROLL 1.0383747178329572
|
|
100000000000200000000000200000000000000010001000,
|
|
#BPMCHANGE 111.5
|
|
#SCROLL 1.031390134529148
|
|
100000000000200000000000200000000000000000000000,
|
|
#BPMCHANGE 112.5
|
|
#SCROLL 1.0222222222222221
|
|
100000000000200000000000100000002000100010002000,
|
|
100000001000200000002000100000001000200000001000,
|
|
#BPMCHANGE 115.5
|
|
#SCROLL 0.9956709956709957
|
|
100000001000200000002000100000001000200000001000,
|
|
#BPMCHANGE 115
|
|
#SCROLL 1
|
|
100000001000200000002000100000001000200020002000,
|
|
100000000000200000000000100000000000000000000000,
|
|
#MEASURE 2/4
|
|
000000000000100010002000,
|
|
#MEASURE 4/4
|
|
100000001000200000002000100010002000100000002000,
|
|
100000002000200000002000100010002000100000002000,
|
|
100000001000100000001000100000000000100000000000,
|
|
100000001000200000002000100010002000100000002000,
|
|
100000002000200000002000100010002000100000002000,
|
|
100000001000200000002000100010002000100000002000,
|
|
100010002000200020001000100020002000500000000008,
|
|
000000001000200000000000000000002000200000000000,
|
|
100000001000200000002000100010002000100000002000,
|
|
100000002000200000002000100010002000100000000000,
|
|
300000003000000000000000500000000000000000000000,
|
|
000000000000000000000008000000000000100000001000,
|
|
000000001000200000000000100010002000200000000000,
|
|
100000001000200000001000200000000000100000005000,
|
|
000000000000000000000000000000080000000000000000,
|
|
200000000000200000000000200000000000200000000000,
|
|
200000000000200000000000200000000000200000000000,
|
|
300000000000000000000000000000000000000000000000,
|
|
000000000000000000000000100010002000100020000000,
|
|
100000001000200010001000200000002000100000002000,
|
|
100000001000200010001000200000002000100010001000,
|
|
200010001000200010001000100010002000100010002000,
|
|
100010002000100010002000100000000000000000000000,
|
|
#MEASURE 2/4
|
|
100000001000000010000000,
|
|
#MEASURE 4/4
|
|
100000001000200000002000100010002000100000002000,
|
|
100000002000200000002000100010002000100000002000,
|
|
100000000000100000000000100000000000100000000000,
|
|
100000001000200000002000100010002000100000002000,
|
|
100000002000200000002000100010002000100000001000,
|
|
100000001000200000002000100010002000100000002000,
|
|
100000000000100000000000100000000000100000007000,
|
|
000000000000000000008000000000001000000000000000,
|
|
100000001000000000001000100010001000000000000000,
|
|
100000002000100000002000100010001000000000000000,
|
|
100000000000100000002000100010001000000000000000,
|
|
100020001000100020001000100000000000100000003000,
|
|
000000000000200000004000000000000000100000003000,
|
|
000000000000200000004000000000000000100000001000,
|
|
100000000000100000000000100000005000000000000000,
|
|
000000000000000800000000000000000000000000000000,
|
|
|
|
|
|
#END
|
|
|
|
|
|
COURSE:Hard
|
|
LEVEL:4
|
|
|
|
STYLE:Double
|
|
SCOREINIT:950
|
|
|
|
|
|
#START P1
|
|
|
|
|
|
#SCROLL 1.0176991150442478
|
|
0
|
|
#BPMCHANGE 109
|
|
#SCROLL 1.055045871559633
|
|
0
|
|
#BPMCHANGE 114
|
|
#SCROLL 1.0087719298245614
|
|
00,
|
|
#BPMCHANGE 111
|
|
#SCROLL 1.0360360360360361
|
|
1220,
|
|
#BPMCHANGE 110.75
|
|
#SCROLL 1.0383747178329572
|
|
100200200011,
|
|
#BPMCHANGE 111.5
|
|
#SCROLL 1.031390134529148
|
|
1220,
|
|
#BPMCHANGE 112.5
|
|
#SCROLL 1.0222222222222221
|
|
100200102112,
|
|
101200101100,
|
|
#BPMCHANGE 115.5
|
|
#SCROLL 0.9956709956709957
|
|
101200101100,
|
|
#BPMCHANGE 115
|
|
#SCROLL 1
|
|
101200101100,
|
|
1210,
|
|
#MEASURE 2/4
|
|
000112,
|
|
#MEASURE 4/4
|
|
100200102100,
|
|
100200102101,
|
|
101101100100,
|
|
100201100200,
|
|
100201100200,
|
|
100201100200,
|
|
100000000000100000000000100000000000500000000008,
|
|
001122002200,
|
|
100201200100,
|
|
,
|
|
303000500000,
|
|
000000000000000000000008000000000000100000001000,
|
|
001200112200,
|
|
,
|
|
,
|
|
101101001000,
|
|
101101101100,
|
|
101101002200,
|
|
101010111000,
|
|
101000111000,
|
|
101000111001,
|
|
111001101101,
|
|
101010100000,
|
|
#MEASURE 2/4
|
|
101010,
|
|
#MEASURE 4/4
|
|
101100111000,
|
|
101010111001,
|
|
101101100101,
|
|
110000100000,
|
|
101001111000,
|
|
101001111000,
|
|
111001101100,
|
|
000122000000,
|
|
101001111000,
|
|
102102111000,
|
|
100201100200,
|
|
100201101105,
|
|
000000000000000000000008000000001000100000003000,
|
|
000000001101,
|
|
10101500,
|
|
000000000008000000000000000000000000000000000000,
|
|
|
|
|
|
#END
|
|
|
|
|
|
#START P2
|
|
|
|
|
|
#SCROLL 1.0176991150442478
|
|
0
|
|
#BPMCHANGE 109
|
|
#SCROLL 1.055045871559633
|
|
0
|
|
#BPMCHANGE 114
|
|
#SCROLL 1.0087719298245614
|
|
00,
|
|
#BPMCHANGE 111
|
|
#SCROLL 1.0360360360360361
|
|
101101001000,
|
|
#BPMCHANGE 110.75
|
|
#SCROLL 1.0383747178329572
|
|
101101101100,
|
|
#BPMCHANGE 111.5
|
|
#SCROLL 1.031390134529148
|
|
101101002200,
|
|
#BPMCHANGE 112.5
|
|
#SCROLL 1.0222222222222221
|
|
101010111000,
|
|
101000111000,
|
|
#BPMCHANGE 115.5
|
|
#SCROLL 0.9956709956709957
|
|
101000111001,
|
|
#BPMCHANGE 115
|
|
#SCROLL 1
|
|
111001101101,
|
|
101010100000,
|
|
#MEASURE 2/4
|
|
,
|
|
#MEASURE 4/4
|
|
101100111000,
|
|
101010111001,
|
|
101101100101,
|
|
110000100000,
|
|
101001111000,
|
|
101001111000,
|
|
111001101100,
|
|
000122000000,
|
|
,
|
|
100201200100,
|
|
303000500000,
|
|
000000000000000000000008000000000000000000000000,
|
|
,
|
|
101201200101,
|
|
,
|
|
1220,
|
|
100200200011,
|
|
1220,
|
|
100200112120,
|
|
101200101100,
|
|
101200101100,
|
|
101200101100,
|
|
1210,
|
|
#MEASURE 2/4
|
|
000112,
|
|
#MEASURE 4/4
|
|
100200102100,
|
|
100200102101,
|
|
101101100100,
|
|
100201100200,
|
|
100201100200,
|
|
100201100200,
|
|
100000000000100000000000100000000000500000000008,
|
|
001122002200,
|
|
100201100200,
|
|
100201100200,
|
|
100102111000,
|
|
121121100000,
|
|
000000001000200000005000000000000000000000000008,
|
|
001204001202,
|
|
20202500,
|
|
000000000008000000000000000000000000000000000000,
|
|
|
|
|
|
#END
|
|
|
|
|
|
STYLE:Single
|
|
BALLOON:4
|
|
SCOREINIT:970
|
|
SCOREDIFF:250
|
|
|
|
|
|
#START
|
|
|
|
|
|
#SCROLL 1.0176991150442478
|
|
000000000000
|
|
#BPMCHANGE 109
|
|
#SCROLL 1.055045871559633
|
|
000000000000
|
|
#BPMCHANGE 114
|
|
#SCROLL 1.0087719298245614
|
|
000000000000000000000000,
|
|
#BPMCHANGE 111
|
|
#SCROLL 1.0360360360360361
|
|
100000000000200000000000200000000000000000000000,
|
|
#BPMCHANGE 110.75
|
|
#SCROLL 1.0383747178329572
|
|
100000000000200000000000200000000000000010001000,
|
|
#BPMCHANGE 111.5
|
|
#SCROLL 1.031390134529148
|
|
100000000000200000000000200000000000000000000000,
|
|
#BPMCHANGE 112.5
|
|
#SCROLL 1.0222222222222221
|
|
100000000000200000000000100000002000100010002000,
|
|
100000001000200000000000100000001000100000000000,
|
|
#BPMCHANGE 115.5
|
|
#SCROLL 0.9956709956709957
|
|
100000001000200000000000100000001000100000000000,
|
|
#BPMCHANGE 115
|
|
#SCROLL 1
|
|
100000001000200000000000100000001000100000000000,
|
|
100000000000200000000000100000000000000000000000,
|
|
#MEASURE 2/4
|
|
000000000000100010002000,
|
|
#MEASURE 4/4
|
|
100000000000200000000000100000002000100000000000,
|
|
100000000000200000000000100000002000100000001000,
|
|
100000001000100000001000100000000000100000000000,
|
|
100000000000200000001000100000000000200000000000,
|
|
100000000000200000001000100000000000200000000000,
|
|
100000000000200000001000100000000000200000000000,
|
|
100000000000100000000000100000000000500000008000,
|
|
000000001000200000000000000000002000200000000000,
|
|
100000000000200000001000200000000000100000000000,
|
|
100000000000200000001000200000000000100000000000,
|
|
300000003000000000000000500000000000000000000000,
|
|
000000000000000000008000000000000000100000001000,
|
|
000000001000200000000000100010002000200000000000,
|
|
100000001000200000001000200000000000100000005000,
|
|
000000000000000000000000800000000000000000000000,
|
|
200000000000200000000000200000000000200000000000,
|
|
200000000000200000000000200000000000200000000000,
|
|
300000000000000000000000000000000000000000000000,
|
|
000000000000000000000000100010002000100020000000,
|
|
100000001000200000000000100000002000100000000000,
|
|
100000001000200000000000100000002000100000000000,
|
|
100000001000200000000000100000002000100000001000,
|
|
100000001000200000002000100000000000000000000000,
|
|
#MEASURE 2/4
|
|
100000001000000010000000,
|
|
#MEASURE 4/4
|
|
100000000000200000000000100000001000100000000000,
|
|
100000000000200000000000100000001000100000000000,
|
|
100000000000100000000000100000000000100000000000,
|
|
100000000000200000001000100000000000200000000000,
|
|
100000000000200000001000100000000000200000000000,
|
|
100000000000200000001000100000000000200000000000,
|
|
100000000000100000000000100000000000100000007000,
|
|
000000000000000000000000000000000000000000000000,
|
|
00040000000000000008000000000001000000000000000,
|
|
100000001000000000001000100010001000000000000000,
|
|
100000002000100000002000100010001000000000000000,
|
|
100000000000100000002000100010001000000000000000,
|
|
100020001000100020001000100000000000100000003000,
|
|
000000000000200000004000000000000000100000003000,
|
|
000000000000200000004000000000000000100000001000,
|
|
100000000000100000000000100000005000000000000000,
|
|
000000008000000000000000000000000000000000000000,
|
|
|
|
|
|
#END
|
|
|
|
|
|
COURSE:Normal
|
|
LEVEL:3
|
|
|
|
STYLE:Double
|
|
SCOREINIT:1360
|
|
|
|
|
|
#START P1
|
|
|
|
|
|
#SCROLL 1.0176991150442478
|
|
0
|
|
#BPMCHANGE 109
|
|
#SCROLL 1.055045871559633
|
|
0
|
|
#BPMCHANGE 114
|
|
#SCROLL 1.0087719298245614
|
|
00,
|
|
#BPMCHANGE 111
|
|
#SCROLL 1.0360360360360361
|
|
1220,
|
|
#BPMCHANGE 110.75
|
|
#SCROLL 1.0383747178329572
|
|
000000000011,
|
|
#BPMCHANGE 111.5
|
|
#SCROLL 1.031390134529148
|
|
1220,
|
|
#BPMCHANGE 112.5
|
|
#SCROLL 1.0222222222222221
|
|
0011,
|
|
101100100000,
|
|
#BPMCHANGE 115.5
|
|
#SCROLL 0.9956709956709957
|
|
02120,
|
|
#BPMCHANGE 115
|
|
#SCROLL 1
|
|
101100100000,
|
|
1110,
|
|
#MEASURE 2/4
|
|
,
|
|
#MEASURE 4/4
|
|
100200101100,
|
|
,
|
|
1110,
|
|
100001100000,
|
|
1200,
|
|
100001100000,
|
|
100000000000100000000000100000000000500000000008,
|
|
001000000000,
|
|
100001100200,
|
|
1200,
|
|
303000000000,
|
|
100000000101,
|
|
000000111100,
|
|
1210,
|
|
1,
|
|
2200,
|
|
2200,
|
|
3,
|
|
000000111000,
|
|
100200101100,
|
|
100000101000,
|
|
1111,
|
|
1110,
|
|
#MEASURE 2/4
|
|
,
|
|
#MEASURE 4/4
|
|
100200101100,
|
|
,
|
|
1110,
|
|
100001100000,
|
|
1200,
|
|
100001100000,
|
|
1111,
|
|
103000000000,
|
|
101001111000,
|
|
100201100100,
|
|
100200101100,
|
|
100200101103,
|
|
000000000103,
|
|
000000000103,
|
|
0115,
|
|
000000000008000000000000000000000000000000000000,
|
|
|
|
|
|
#END
|
|
|
|
|
|
#START P2
|
|
|
|
|
|
#SCROLL 1.0176991150442478
|
|
0
|
|
#BPMCHANGE 109
|
|
#SCROLL 1.055045871559633
|
|
0
|
|
#BPMCHANGE 114
|
|
#SCROLL 1.0087719298245614
|
|
00,
|
|
#BPMCHANGE 111
|
|
#SCROLL 1.0360360360360361
|
|
,
|
|
#BPMCHANGE 110.75
|
|
#SCROLL 1.0383747178329572
|
|
1220,
|
|
#BPMCHANGE 111.5
|
|
#SCROLL 1.031390134529148
|
|
,
|
|
#BPMCHANGE 112.5
|
|
#SCROLL 1.0222222222222221
|
|
1220,
|
|
0202,
|
|
#BPMCHANGE 115.5
|
|
#SCROLL 0.9956709956709957
|
|
101100100000,
|
|
#BPMCHANGE 115
|
|
#SCROLL 1
|
|
1212,
|
|
11,
|
|
#MEASURE 2/4
|
|
,
|
|
#MEASURE 4/4
|
|
100200101100,
|
|
,
|
|
1110,
|
|
100001100000,
|
|
1200,
|
|
100001100000,
|
|
100000000000100000000000100000000000500000000008,
|
|
001000000000,
|
|
100001100200,
|
|
1200,
|
|
303000000000,
|
|
100000000101,
|
|
000000111100,
|
|
1210,
|
|
1,
|
|
2200,
|
|
2200,
|
|
3,
|
|
000000111000,
|
|
100200101100,
|
|
100000101000,
|
|
1111,
|
|
1110,
|
|
#MEASURE 2/4
|
|
,
|
|
#MEASURE 4/4
|
|
100200101100,
|
|
,
|
|
1110,
|
|
100001100000,
|
|
1200,
|
|
100001100000,
|
|
1111,
|
|
103000000000,
|
|
101001111000,
|
|
100201100100,
|
|
100200101100,
|
|
100200101103,
|
|
000000000103,
|
|
000000000103,
|
|
0115,
|
|
000000000008000000000000000000000000000000000000,
|
|
|
|
|
|
#END
|
|
|
|
|
|
STYLE:Single
|
|
SCOREINIT:1140
|
|
SCOREDIFF:340
|
|
|
|
|
|
#START
|
|
|
|
|
|
#SCROLL 1.0176991150442478
|
|
000000000000
|
|
#BPMCHANGE 109
|
|
#SCROLL 1.055045871559633
|
|
000000000000
|
|
#BPMCHANGE 114
|
|
#SCROLL 1.0087719298245614
|
|
000000000000000000000000,
|
|
#BPMCHANGE 111
|
|
#SCROLL 1.0360360360360361
|
|
100000000000200000000000200000000000000000000000,
|
|
#BPMCHANGE 110.75
|
|
#SCROLL 1.0383747178329572
|
|
100000000000200000000000200000000000000010001000,
|
|
#BPMCHANGE 111.5
|
|
#SCROLL 1.031390134529148
|
|
100000000000200000000000200000000000000000000000,
|
|
#BPMCHANGE 112.5
|
|
#SCROLL 1.0222222222222221
|
|
100000000000200000000000200000000000000000000000,
|
|
100000001000100000000000100000000000000000000000,
|
|
#BPMCHANGE 115.5
|
|
#SCROLL 0.9956709956709957
|
|
100000001000100000000000100000000000000000000000,
|
|
#BPMCHANGE 115
|
|
#SCROLL 1
|
|
100000001000100000000000100000001000100000000000,
|
|
100000000000100000000000100000000000000000000000,
|
|
#MEASURE 2/4
|
|
000000000000000000000000,
|
|
#MEASURE 4/4
|
|
100000000000200000000000100000001000100000000000,
|
|
100000000000200000000000100000001000100000000000,
|
|
100000000000100000000000100000000000000000000000,
|
|
100000000000000000001000100000000000000000000000,
|
|
100000000000000000001000100000000000000000000000,
|
|
100000000000000000001000100000000000000000000000,
|
|
100000000000100000000000100000000000500000008000,
|
|
000000001000000000000000000000002000200000000000,
|
|
100000000000000000001000100000000000200000000000,
|
|
100000000000000000001000100000000000200000000000,
|
|
300000003000000000000000000000000000000000000000,
|
|
100000000000000000000000000000000000100000001000,
|
|
000000000000000000000000100010001000100000000000,
|
|
000000000000000000000000000000000000100000001000,
|
|
000000000000000000000000000000000000000000000000,
|
|
200000000000200000000000000000000000000000000000,
|
|
200000000000200000000000000000000000000000000000,
|
|
300000000000000000000000000000000000000000000000,
|
|
000000000000000000000000100000000000100000000000,
|
|
100000000000200000000000100000001000100000000000,
|
|
100000000000200000000000100000001000100000000000,
|
|
100000000000100000000000100000000000100000000000,
|
|
100000000000100000000000100000000000000000000000,
|
|
#MEASURE 2/4
|
|
000000000000000000000000,
|
|
#MEASURE 4/4
|
|
100000000000200000000000100000001000100000000000,
|
|
100000000000200000000000100000001000100000000000,
|
|
100000000000100000000000100000000000000000000000,
|
|
100000000000000000001000100000000000000000000000,
|
|
100000000000200000001000100000000000000000000000,
|
|
100000000000000000001000100000000000000000000000,
|
|
100000000000100000000000100000000000100000000000,
|
|
100000003000000000000000000000000000000000000000,
|
|
100000001000000000001000100010001000000000000000,
|
|
100000000000200000001000100000000000100000000000,
|
|
100000001000000000001000100010001000000000000000,
|
|
100000000000200000001000100000000000100000003000,
|
|
000000000000000000000000000000000000100000003000,
|
|
000000000000000000000000000000000000100000003000,
|
|
000000000000100000000000100000005000000000000000,
|
|
000000008000000000000000000000000000000000000000,
|
|
|
|
|
|
#END
|
|
|
|
|
|
COURSE:Easy
|
|
LEVEL:2
|
|
|
|
STYLE:Double
|
|
SCOREINIT:1420
|
|
|
|
|
|
#START P1
|
|
|
|
|
|
#SCROLL 1.0176991150442478
|
|
0
|
|
#BPMCHANGE 109
|
|
#SCROLL 1.055045871559633
|
|
0
|
|
#BPMCHANGE 114
|
|
#SCROLL 1.0087719298245614
|
|
00,
|
|
#BPMCHANGE 111
|
|
#SCROLL 1.0360360360360361
|
|
1100,
|
|
#BPMCHANGE 110.75
|
|
#SCROLL 1.0383747178329572
|
|
1100,
|
|
#BPMCHANGE 111.5
|
|
#SCROLL 1.031390134529148
|
|
1100,
|
|
#BPMCHANGE 112.5
|
|
#SCROLL 1.0222222222222221
|
|
1100,
|
|
1200,
|
|
#BPMCHANGE 115.5
|
|
#SCROLL 0.9956709956709957
|
|
1200,
|
|
#BPMCHANGE 115
|
|
#SCROLL 1
|
|
000000101100,
|
|
01,
|
|
#MEASURE 2/4
|
|
,
|
|
#MEASURE 4/4
|
|
1200,
|
|
1200,
|
|
1110,
|
|
1200,
|
|
000001100000,
|
|
1200,
|
|
1110,
|
|
003000000000,
|
|
1200,
|
|
000001100000,
|
|
1300,
|
|
0001,
|
|
000000101100,
|
|
1100,
|
|
1100,
|
|
2200,
|
|
,
|
|
3,
|
|
0011,
|
|
1200,
|
|
1200,
|
|
1100,
|
|
1110,
|
|
#MEASURE 2/4
|
|
,
|
|
#MEASURE 4/4
|
|
000000101100,
|
|
000000101100,
|
|
0011,
|
|
000001100000,
|
|
1200,
|
|
000001100000,
|
|
1115,
|
|
008000000000000000000000000000000000000000000000,
|
|
1022,
|
|
1022,
|
|
100001100000,
|
|
100001100300,
|
|
0003,
|
|
0003,
|
|
1150,
|
|
000000000008000000000000000000000000000000000000,
|
|
|
|
|
|
#END
|
|
|
|
|
|
#START P2
|
|
|
|
|
|
#SCROLL 1.0176991150442478
|
|
0
|
|
#BPMCHANGE 109
|
|
#SCROLL 1.055045871559633
|
|
0
|
|
#BPMCHANGE 114
|
|
#SCROLL 1.0087719298245614
|
|
00,
|
|
#BPMCHANGE 111
|
|
#SCROLL 1.0360360360360361
|
|
0022,
|
|
#BPMCHANGE 110.75
|
|
#SCROLL 1.0383747178329572
|
|
0022,
|
|
#BPMCHANGE 111.5
|
|
#SCROLL 1.031390134529148
|
|
0022,
|
|
#BPMCHANGE 112.5
|
|
#SCROLL 1.0222222222222221
|
|
0022,
|
|
0012,
|
|
#BPMCHANGE 115.5
|
|
#SCROLL 0.9956709956709957
|
|
0012,
|
|
#BPMCHANGE 115
|
|
#SCROLL 1
|
|
1011000000,
|
|
1110,
|
|
#MEASURE 2/4
|
|
,
|
|
#MEASURE 4/4
|
|
000000101100,
|
|
000000101100,
|
|
0011,
|
|
000001100000,
|
|
1200,
|
|
000001100000,
|
|
1115,
|
|
008000000000000000000000000000000000000000000000,
|
|
000001100000,
|
|
1200,
|
|
1300,
|
|
1100,
|
|
1100,
|
|
0001,
|
|
000000101100,
|
|
,
|
|
2200,
|
|
3,
|
|
,
|
|
0012,
|
|
0012,
|
|
0011,
|
|
1110,
|
|
#MEASURE 2/4
|
|
,
|
|
#MEASURE 4/4
|
|
1200,
|
|
1200,
|
|
1110,
|
|
1200,
|
|
000001100000,
|
|
1200,
|
|
1110,
|
|
003000000000,
|
|
100001100000,
|
|
100001100000,
|
|
1022,
|
|
12,
|
|
0300,
|
|
0300,
|
|
1150,
|
|
000000000008000000000000000000000000000000000000,
|
|
|
|
|
|
#END
|
|
|
|
|
|
STYLE:Single
|
|
SCOREINIT:1420
|
|
SCOREDIFF:650
|
|
|
|
|
|
#START
|
|
|
|
|
|
#SCROLL 1.0176991150442478
|
|
000000000000
|
|
#BPMCHANGE 109
|
|
#SCROLL 1.055045871559633
|
|
000000000000
|
|
#BPMCHANGE 114
|
|
#SCROLL 1.0087719298245614
|
|
000000000000000000000000,
|
|
#BPMCHANGE 111
|
|
#SCROLL 1.0360360360360361
|
|
100000000000000000000000000000000000000000000000,
|
|
#BPMCHANGE 110.75
|
|
#SCROLL 1.0383747178329572
|
|
100000000000000000000000000000000000000000000000,
|
|
#BPMCHANGE 111.5
|
|
#SCROLL 1.031390134529148
|
|
100000000000100000000000000000000000000000000000,
|
|
#BPMCHANGE 112.5
|
|
#SCROLL 1.0222222222222221
|
|
100000000000100000000000000000000000000000000000,
|
|
100000000000200000000000000000000000000000000000,
|
|
#BPMCHANGE 115.5
|
|
#SCROLL 0.9956709956709957
|
|
100000000000200000000000000000000000000000000000,
|
|
#BPMCHANGE 115
|
|
#SCROLL 1
|
|
100000000000200000000000100000000000100000000000,
|
|
100000000000100000000000100000000000000000000000,
|
|
#MEASURE 2/4
|
|
000000000000000000000000,
|
|
#MEASURE 4/4
|
|
100000000000200000000000000000000000000000000000,
|
|
100000000000200000000000000000000000000000000000,
|
|
100000000000100000000000100000000000000000000000,
|
|
100000000000200000000000000000000000000000000000,
|
|
100000000000000000000000100000000000100000000000,
|
|
100000000000200000000000000000000000000000000000,
|
|
100000000000100000000000100000000000000000000000,
|
|
000000003000000000000000000000000000000000000000,
|
|
100000000000200000000000000000000000000000000000,
|
|
100000000000200000000000000000000000000000000000,
|
|
100000000000300000000000000000000000000000000000,
|
|
100000000000000000000000000000000000100000000000,
|
|
000000000000000000000000100000001000100000000000,
|
|
000000000000000000000000000000000000100000000000,
|
|
000000000000000000000000000000000000000000000000,
|
|
200000000000200000000000000000000000000000000000,
|
|
200000000000200000000000000000000000000000000000,
|
|
300000000000000000000000000000000000000000000000,
|
|
000000000000000000000000100000000000100000000000,
|
|
100000000000200000000000000000000000000000000000,
|
|
100000000000200000000000000000000000000000000000,
|
|
100000000000100000000000100000000000000000000000,
|
|
100000000000100000000000100000000000000000000000,
|
|
#MEASURE 2/4
|
|
000000000000000000000000,
|
|
#MEASURE 4/4
|
|
100000000000200000000000000000000000000000000000,
|
|
100000000000200000000000000000000000000000000000,
|
|
100000000000100000000000100000000000000000000000,
|
|
100000000000200000000000000000000000000000000000,
|
|
100000000000200000000000000000000000000000000000,
|
|
100000000000100000000000100000000000000000000000,
|
|
100000000000100000000000100000000000100000000000,
|
|
000000003000000000000000000000000000000000000000,
|
|
100000000000000000000000100000000000100000000000,
|
|
100000000000000000000000100000000000100000000000,
|
|
100000000000000000000000200000000000200000000000,
|
|
000000000000000000000000000000000000300000000000,
|
|
000000000000000000000000000000000000300000000000,
|
|
000000000000000000000000000000000000300000000000,
|
|
|
|
|
|
#END
|
|
|