Files
2023-06-15 19:00:23 -05:00

370 lines
4.1 KiB
Plaintext

//TJADB Project
TITLE:Kimi ni Sakura Hirari to Mau
TITLEJA:君に桜ヒラリと舞う
SUBTITLE:--Doll☆Elements
BPM:132
WAVE:Kimi ni Sakura Hirari to Mau.ogg
OFFSET:-2.021
DEMOSTART:91.878
COURSE:Oni
LEVEL:7
BALLOON:14
SCOREINIT:660
SCOREDIFF:140
#START
00022222,
10022222,
10002222,
1212,
1222,
1010200011102000,
1010200011102000,
1222,
500000000000000000000000000000000000000008000000,
#BPMCHANGE 131.3
4,
#BPMCHANGE 132
0000002220202020,
10021122,
10021122,
10221021,
0000002220202020,
10021122,
10210022,
10201021,
00011020,
1000201110102010,
1000201110102010,
1000201110102010,
0000201110202000,
1000201110102010,
1000201110102010,
1000201110002050,
000000000000000000000000000000000000000000000008,
#BPMCHANGE 132.7
0004,
#BPMCHANGE 150
0022102210002011,
1020201110202010,
1022102210002011,
1020201110202010,
10200120,
1212,
70000008,
4000000040001010,
1002201000112010,
1002201010102000,
1002201000112010,
1002201010202010,
1002201000112010,
0012201000112010,
1002201000112010,
2012201010202000,
2020100000222010,
0000222020102010,
2020100000222010,
0000222020102010,
2000200011102000,
2000200011102000,
200000000000200000500000000000000000000008000000,
40000122,
#BPMCHANGE 149.8
1000002220202020,
#GOGOSTART
#BPMCHANGE 150
1011201010222010,
1011201010222010,
1011201110112011,
1011201220222010,
1011201010222010,
1011201000221020,
1011201010222010,
1122112211221122,
1011202010122010,
1011202010122010,
1011201110122011,
1011201220222010,
1011202010122010,
1011202010122010,
1011201110122050,
000000000000000000000000000000000000000000000008,
#GOGOEND
#END
COURSE:Hard
LEVEL:5
BALLOON:15
SCOREINIT:790
SCOREDIFF:233
#START
,
10022020,
12,
1212,
1222,
10201120,
10201120,
1222,
7,
8,
,
20022020,
20022022,
20022022,
00022020,
20022022,
20220022,
20202022,
00011020,
10022010,
10011020,
10021021,
00011020,
10022010,
10011020,
10221025,
000000000000000000000000000000000000000000000008,
0004,
#BPMCHANGE 150
0020102010000011,
12200000,
0020102010000011,
12200000,
3002,
1121,
1,
40004011,
10210021,
10210021,
10210021,
10210221,
10210021,
10210021,
10210021,
10201220,
2020100000222010,
0000222010102000,
2020100000222010,
0000222010102000,
10201120,
10201120,
500000000000000000000000000000000000000000000008,
,
0000002220201010,
#GOGOSTART
1000002220201010,
1000002220201010,
10221021,
0000002220201010,
1000002220201010,
10210011,
10202021,
00011040,
40022030,
30011040,
40021021,
0000001110004000,
4000002220003000,
3000001110004000,
40221025,
000000000000000000000000000000000000000000000008,
#GOGOEND
#END
COURSE:Normal
LEVEL:5
BALLOON:10
SCOREINIT:930
SCOREDIFF:315
#START
,
1022,
1022,
11,
1,
1202,
12,
1222,
7,
8,
,
2022,
22,
22,
2,
22,
22,
2,
2,
10022010,
10022010,
11,
1,
10022010,
10022010,
10001005,
000000000000000000000000000000000000000000000008,
,
#BPMCHANGE 150
01111002,
22200000,
01111002,
22200000,
3002,
1111,
1,
44,
10010000,
10010000,
10010000,
10010000,
10010000,
10010000,
10010000,
11,
11100111,
0220,
11100111,
0220,
11,
1111,
500000000000000000000000000000000000000000000008,
,
00011110,
#GOGOSTART
10011110,
10011110,
10201022,
00011110,
10011110,
10220011,
10101022,
00011030,
30022040,
40011030,
30022022,
00011030,
30022040,
40011030,
30222025,
000000000000000000000000000000000000000000000008,
#GOGOEND
#END
COURSE:Easy
LEVEL:3
BALLOON:7
SCOREINIT:800
SCOREDIFF:385
#START
,
1,
1,
11,
1,
1,
1,
11,
7,
8,
,
2,
2,
22,
2,
2,
2,
22,
2,
1001,
1001,
11,
1,
1001,
1001,
10001005,
000000000000000000000000000000000000000000000008,
,
#BPMCHANGE 150
1110,
1100,
1110,
1100,
2001,
1111,
1,
44,
1,
1,
1,
1,
1,
1,
1,
11,
1100,
0220,
1100,
0220,
11,
1110,
500000000000000000000000000000000000000000000008,
,
0033,
#GOGOSTART
3011,
1011,
11,
2033,
3011,
10040000,
1110,
2033,
3022,
2011,
12,
1033,
3022,
2011,
10002005,
000000000000000000000000000000000000000000000008,
#GOGOEND
#END