forked from ESE/ESE
335 lines
3.6 KiB
Plaintext
335 lines
3.6 KiB
Plaintext
//TJADB Project
|
|
TITLE:Kimi wa Rock o Kikanai
|
|
TITLEJA:君はロックを聴かない
|
|
SUBTITLE:--Aimyon
|
|
BPM:100
|
|
WAVE:Kimi wa Rock o Kikanai.ogg
|
|
OFFSET:-2.538
|
|
DEMOSTART:68.808
|
|
|
|
COURSE:Oni
|
|
LEVEL:4
|
|
BALLOON:30
|
|
SCOREINIT:780
|
|
SCOREDIFF:223
|
|
|
|
|
|
#START
|
|
|
|
|
|
#GOGOSTART
|
|
10201122,
|
|
1000201110202020,
|
|
10201122,
|
|
1000200020102011,
|
|
10201122,
|
|
1000201110202000,
|
|
500000000000000000000000000008000000100000000000,
|
|
30302222,
|
|
|
|
#GOGOEND
|
|
1010201100102010,
|
|
1010201100102010,
|
|
1020201100202010,
|
|
1020201100102000,
|
|
1010201110102000,
|
|
1010201110102000,
|
|
1010201110102000,
|
|
1000200020202220,
|
|
1010201100102010,
|
|
1010201100102010,
|
|
1020201100202010,
|
|
12210120,
|
|
1010201110102000,
|
|
1010201110102000,
|
|
1010201110102000,
|
|
1000201110201020,
|
|
1000201011102020,
|
|
1000202011102000,
|
|
1000201110102000,
|
|
33330222,
|
|
|
|
#GOGOSTART
|
|
3000300011102011,
|
|
1010201110102000,
|
|
1000100011102000,
|
|
1010202011102200,
|
|
3000300011102011,
|
|
1010201110200011,
|
|
1000201110102000,
|
|
1000201110102000,
|
|
1010201110102020,
|
|
600000000000000000000000000000000008000000000000,
|
|
|
|
#GOGOEND
|
|
,
|
|
,
|
|
|
|
#GOGOSTART
|
|
10201122,
|
|
1000201110202020,
|
|
10201122,
|
|
1000200020102011,
|
|
10201122,
|
|
1000201110202000,
|
|
500000000000000000000000000008000000100000000000,
|
|
3030
|
|
#BPMCHANGE 92
|
|
#SCROLL 1.08
|
|
2
|
|
#BPMCHANGE 93
|
|
#SCROLL 1.07
|
|
2
|
|
#BPMCHANGE 83
|
|
#SCROLL 1.2
|
|
2
|
|
#BPMCHANGE 63
|
|
#SCROLL 1.58
|
|
2,
|
|
|
|
#GOGOEND
|
|
700000000000000000000000000000000000000000000008,
|
|
|
|
|
|
#END
|
|
|
|
|
|
COURSE:Hard
|
|
LEVEL:2
|
|
BALLOON:25
|
|
SCOREINIT:850
|
|
SCOREDIFF:250
|
|
|
|
|
|
#START
|
|
|
|
|
|
#GOGOSTART
|
|
10001120,
|
|
10000220,
|
|
10001120,
|
|
1,
|
|
10001220,
|
|
12,
|
|
500000000000000000000000000008000000100000000000,
|
|
3300,//8
|
|
|
|
#GOGOEND
|
|
11201020,
|
|
10210120,
|
|
11201020,
|
|
10210020,
|
|
10201120,
|
|
10201120,
|
|
10201121,
|
|
1,
|
|
11201020,
|
|
10210120,
|
|
11201020,
|
|
10210020,
|
|
10201120,
|
|
10201120,
|
|
10201121,
|
|
1011,
|
|
10221022,
|
|
10120020,
|
|
10221120,
|
|
33330000,//28
|
|
|
|
#GOGOSTART
|
|
30301120,
|
|
10210120,
|
|
10101120,
|
|
11221120,
|
|
30301120,
|
|
500000000000000000000000000008000000000000000000,
|
|
10211120,
|
|
10211120,
|
|
11211120,
|
|
600000000000000000000000000000000008000000000000,//38
|
|
|
|
#GOGOEND
|
|
,
|
|
,//40
|
|
|
|
#GOGOSTART
|
|
10001120,
|
|
10000220,
|
|
10001120,
|
|
1,
|
|
10001220,
|
|
12,
|
|
500000000000000000000000000008000000100000000000,
|
|
3030
|
|
#BPMCHANGE 95
|
|
#SCROLL 1.05
|
|
00
|
|
#BPMCHANGE 90
|
|
#SCROLL 1.11
|
|
0
|
|
#BPMCHANGE 65
|
|
#SCROLL 1.54
|
|
0,//48
|
|
|
|
#GOGOEND
|
|
7,
|
|
8,
|
|
#END
|
|
|
|
|
|
|
|
COURSE:Normal
|
|
LEVEL:1
|
|
BALLOON:20
|
|
|
|
#START
|
|
#GOGOSTART
|
|
1011,
|
|
1,
|
|
1011,
|
|
1,
|
|
1011,
|
|
12,
|
|
500000000000000000000000000008000000000000000000,
|
|
3300,//8
|
|
|
|
#GOGOEND
|
|
1110,
|
|
1,
|
|
1110,
|
|
1,
|
|
12,
|
|
12,
|
|
1110,
|
|
1,
|
|
1110,
|
|
1,
|
|
1110,
|
|
1,
|
|
12,
|
|
12,
|
|
1110,
|
|
1011,
|
|
22,
|
|
2,
|
|
1110,
|
|
3300,//28
|
|
|
|
#GOGOSTART
|
|
3330,
|
|
2200,
|
|
1110,
|
|
22,
|
|
3330,
|
|
2220,
|
|
1110,
|
|
1110,
|
|
1111,
|
|
600000000000000000000000000000000008000000000000,//38
|
|
|
|
#GOGOEND
|
|
,
|
|
,//40
|
|
|
|
#GOGOSTART
|
|
1011,
|
|
1,
|
|
1011,
|
|
1,
|
|
1011,
|
|
12,
|
|
500000000000000000000000000000000008000000000000,
|
|
3030
|
|
#BPMCHANGE 95
|
|
#SCROLL 1.05
|
|
00
|
|
#BPMCHANGE 90
|
|
#SCROLL 1.11
|
|
0
|
|
#BPMCHANGE 65
|
|
#SCROLL 1.54
|
|
0,//48
|
|
|
|
#GOGOEND
|
|
7,
|
|
8,
|
|
#END
|
|
|
|
|
|
|
|
COURSE:Easy
|
|
LEVEL:1
|
|
BALLOON:12,12,17
|
|
|
|
#START
|
|
#GOGOSTART
|
|
11,
|
|
1,
|
|
11,
|
|
1,
|
|
11,
|
|
1,
|
|
500000000000000000000000000008000000000000000000,
|
|
3300,//8
|
|
|
|
#GOGOEND
|
|
11,
|
|
1,
|
|
11,
|
|
1,
|
|
11,
|
|
11,
|
|
7,
|
|
08,
|
|
11,
|
|
1,
|
|
11,
|
|
1,
|
|
11,
|
|
11,
|
|
7,
|
|
08,
|
|
22,
|
|
2,
|
|
11,
|
|
3,//28
|
|
|
|
#GOGOSTART
|
|
3330,
|
|
1,
|
|
1110,
|
|
1,
|
|
3330,
|
|
1,
|
|
11,
|
|
11,
|
|
1110,
|
|
500000000000000000000000000000000008000000000000,//38
|
|
|
|
#GOGOEND
|
|
,
|
|
,//40
|
|
|
|
#GOGOSTART
|
|
11,
|
|
1,
|
|
11,
|
|
1,
|
|
11,
|
|
1,
|
|
500000000000000000000000000008000000000000000000,
|
|
3030
|
|
#BPMCHANGE 95
|
|
#SCROLL 1.05
|
|
00
|
|
#BPMCHANGE 90
|
|
#SCROLL 1.11
|
|
0
|
|
#BPMCHANGE 65
|
|
#SCROLL 1.54
|
|
0,//48
|
|
|
|
#GOGOEND
|
|
7,
|
|
8,
|
|
#END |