forked from ESE/ESE
367 lines
15 KiB
Plaintext
367 lines
15 KiB
Plaintext
//TJADB Project
|
|
TITLE:Kira Kira Killer
|
|
TITLEJA:きらきらキラー
|
|
SUBTITLE:--Kyary Pamyu Pamyu
|
|
SUBTITLEJA:きゃりーぱみゅぱみゅ
|
|
BPM:160
|
|
WAVE:Kira Kira Killer.ogg
|
|
OFFSET:-1.829
|
|
DEMOSTART:61.657
|
|
|
|
COURSE:Oni
|
|
LEVEL:7
|
|
SCOREINIT:550
|
|
SCOREDIFF:120
|
|
|
|
|
|
#START
|
|
|
|
|
|
200000000000200000000000200000000000200000000000,
|
|
100000100000100000100000100000100000100000100000,
|
|
200000000000200000000000200000000000200000000000,
|
|
100000100000100000100000100000100000100000100000,
|
|
100000000000100000000000100000000000100000000000,
|
|
100000100000100000100000100000100000100000100000,
|
|
100000000000100000000000100000000000100000000000,
|
|
200000200000200000200000200000200000200000200000,
|
|
100000000000000000000000100000000000100000000000,
|
|
100000200200100000200000100000200200100000200000,
|
|
100000000000100000000000100000000000100000000000,
|
|
100000200200100000200000100000200200100000200000,
|
|
100000200000100000200000100000200000100000200000,
|
|
100000200200100000200000100000200200100000200000,
|
|
100000100000200000100000400000000000400000000000,
|
|
300000000000000000000000000000000000000000000000,
|
|
100000000000200000100000100000000000200000100000,
|
|
100000100000200000000000100000000000200000100000,
|
|
100000000000200000000000100000000000200000100000,
|
|
100000100000200000000000100000000000000000000000,
|
|
100000100000200000100000100000000000200000100000,
|
|
100000100000200000000000100000000000200000100000,
|
|
100000000000200000000000100000000000200000100000,
|
|
100000100000200000000000100000200000200000000000,
|
|
100000000000200000100000000000100000200000100000,
|
|
200000000000200000100000000000100100200000000000,
|
|
100000000000200000100000000000100000200000100000,
|
|
200000000000200000100000000000100200200000000000,
|
|
100000000000200000100000000000100000200000100000,
|
|
200000000000200000100000000000200200200000000000,
|
|
500000000000000000000000000000000000000000000000,
|
|
000000000000000000000008000000000000000000000000,
|
|
100000000000200000100100100000100000200000100000,
|
|
200000000000200000100000000000100000200000000000,
|
|
100000000000200000100100100000100000200000100000,
|
|
200000000000200000100000000000000000100000200000,
|
|
100000000000100000000000100000000000100000200000,
|
|
100000200000100000200000100000200000100000200000,
|
|
100000100100100000100100100000100100100000100100,
|
|
200000000000200000000000200000000000200000100100,
|
|
|
|
#GOGOSTART
|
|
100000100100100000100100100000100100100000100100,
|
|
200000100100200000100100200000100100200000100100,
|
|
100000100100100000100100200200100100200000200200,
|
|
100000200200100000200200100000200200100000100100,
|
|
100000100100100000100100100000100100100000100100,
|
|
200000100100200000100100200000100100200000200200,
|
|
100100200000500000000000000000000000000008000000,
|
|
200000000000200000000000200000000000200000100100,
|
|
100000100100100000100100100000100100100000100100,
|
|
200000100100200000100100200000100100200000100100,
|
|
100000100100100000100100200200100100200000200200,
|
|
100000200200100000200200100000200200100000100100,
|
|
100000100100100000100100100000100100100000100100,
|
|
200000100100200000100100200000100100200000200200,
|
|
100100200000500000000000000000000000000000000000,
|
|
000000000008000000000000400000000000400000000000,
|
|
100100100000200000100100100000100100200000100000,
|
|
100100100100200000100100100000100100200000100000,
|
|
100100100000200000100100100000100100200000100000,
|
|
100100100100100000000000400000000000400000000000,
|
|
100100100000200000100100100000100100200000100000,
|
|
100100100100200000100100100000100100200000100000,
|
|
100100100100100000000000400000000000400000000000,
|
|
300000000000300000000000300000400000300000400000,
|
|
|
|
#GOGOEND
|
|
100000000000100000000000100000000000100000000000,
|
|
100000200200100000200000100000200200100000200000,
|
|
100000000000100000000000100000000000100000000000,
|
|
100000200200100000200000100000200200100000200000,
|
|
100000200000100000200000100000200000100000200000,
|
|
100000200200100000200000100000200200100000200000,
|
|
100000100000200000100000400000000000400000000000,
|
|
300000000000000000000000000000300000400000000000,
|
|
|
|
|
|
#END
|
|
|
|
|
|
COURSE:Hard
|
|
LEVEL:4
|
|
BALLOON:35,25
|
|
SCOREINIT:550
|
|
SCOREDIFF:140
|
|
|
|
|
|
#START
|
|
|
|
|
|
000000000000000000000000000000000000000000000000,
|
|
100000100000100000100000100000100000100000100000,
|
|
000000000000000000000000000000000000000000000000,
|
|
100000100000100000100000100000100000100000100000,
|
|
000000000000000000000000000000000000000000000000,
|
|
100000100000100000100000100000100000100000100000,
|
|
000000000000000000000000000000000000000000000000,
|
|
500000000000000000000000000000000000000080000000,
|
|
100000000000000000000000100000000000100000000000,
|
|
100000200000100000100000100000200000100000200000,
|
|
100000000000100000000000100000000000100000000000,
|
|
100000200000100000100000100000200000100000200000,
|
|
100000000000100000000000100000000000100000000000,
|
|
100000200000100000100000100000200000100000200000,
|
|
300000000000300000000000400000000000400000000000,
|
|
300000000000000000000000000000000000000000000000,
|
|
100000000000100000100000100000000000000000200000,
|
|
200000000000200000200000200000000000100000000000,
|
|
100000000000100000000000100000000000000000000000,
|
|
200000000000200000000000200000000000000000000000,
|
|
100000100000200000100000100000000000000000200000,
|
|
200000000000200000200000200000000000100000000000,
|
|
100000000000100000000000100000000000000000200000,
|
|
200000000000200000000000200000000000000000000000,
|
|
100000000000100000100000000000100000100000000000,
|
|
100000000000100000100000000000200000200000000000,
|
|
100000000000100000100000000000100000100000000000,
|
|
100000000000100000100000000000200000200000000000,
|
|
100000000000100000100000000000100000000000100000,
|
|
100000000000100000100000000000200200200000000000,
|
|
500000000000000000000000000000000000000000000000,
|
|
000000000000000000000080000000000000000000000000,
|
|
100000000000200000100000000000100000200000000000,
|
|
100000000000200000100000000000000000000000000000,
|
|
100000000000200000100000000000100000200000000000,
|
|
100000000000200000100000000000000000100000200000,
|
|
100000000000100000000000100000000000100000200000,
|
|
100000200000100000200000100000200000100000200000,
|
|
100000100100100000100100100000100100100000100100,
|
|
100000000000000000000000000000000000000000300000,
|
|
#GOGOSTART
|
|
000000100000200000100000200000100000000000300000,
|
|
000000200000100000200000100000200000000000300000,
|
|
000000100000200000100000200200200000000000300000,
|
|
000000200000100000200000100100100000000000300000,
|
|
000000100000200000100000200000100000000000300000,
|
|
000000200000100000200000100000200000000000100000,
|
|
000000100000500000000000000000000000000080000000,
|
|
200000000000200000000000200000000000200000300000,
|
|
000000100000200000100000200000100000000000300000,
|
|
000000200000100000200000100000200000000000300000,
|
|
000000100000200000100000200200200000000000300000,
|
|
000000200000100000200000100100100000000000300000,
|
|
000000100000200000100000200000100000000000300000,
|
|
000000200000100000200000100000200000000000100000,
|
|
000000100000500000000000000000000000000000000000,
|
|
000000000080000000000000400000000000400000000000,
|
|
700000000000000000000000000000000000000000000000,
|
|
000000000000000000000000000000000000000000000000,
|
|
000000000000000000000000000000000000000000000800,
|
|
000000000000000000000000400000000000400000000000,
|
|
700000000000000000000000000000000000000000000000,
|
|
000000000000000000000000000000000000000000000800,
|
|
000000000000000000000000400000000000400000000000,
|
|
300000000000300000000000300000400000300000400000,
|
|
#GOGOEND
|
|
100000000000100000000000100000000000100000000000,
|
|
100000200000100000100000100000200000100000200000,
|
|
100000000000100000000000100000000000100000000000,
|
|
100000200000100000100000100000200000100000200000,
|
|
100000000000100000000000100000000000100000000000,
|
|
100000200000100000100000100000200000100000200000,
|
|
300000000000300000000000400000000000400000000000,
|
|
300000000000000000000000000000300000400000000000,
|
|
|
|
|
|
#END
|
|
|
|
|
|
COURSE:Normal
|
|
LEVEL:4
|
|
BALLOON:30,20
|
|
SCOREINIT:780
|
|
SCOREDIFF:170
|
|
|
|
|
|
#START
|
|
|
|
|
|
000000000000000000000000000000000000000000000000,
|
|
100000000000100000000000100000000000100000000000,
|
|
000000000000000000000000000000000000000000000000,
|
|
100000000000100000000000100000000000100000000000,
|
|
000000000000000000000000000000000000000000000000,
|
|
100000000000100000000000100000000000100000000000,
|
|
000000000000000000000000000000000000000000000000,
|
|
500000000000000000000000000000000080000000000000,
|
|
100000000000000000000000100000000000100000000000,
|
|
100000100000100000000000200000200000200000000000,
|
|
100000000000100000000000100000000000100000000000,
|
|
100000100000100000000000200000200000200000000000,
|
|
100000000000100000000000100000000000100000000000,
|
|
100000100000100000000000200000200000200000000000,
|
|
300000000000300000000000400000000000400000000000,
|
|
300000000000000000000000000000000000000000000000,
|
|
100000000000100000000000100000000000000000000000,
|
|
200000000000200000000000200000000000100000000000,
|
|
100000000000100000000000100000000000000000000000,
|
|
200000000000200000000000200000000000000000000000,
|
|
100000000000100000000000100000000000000000000000,
|
|
200000000000200000000000200000000000100000000000,
|
|
100000000000100000000000100000000000000000000000,
|
|
200000000000200000000000200000000000000000000000,
|
|
100000000000100000100000000000000000000000000000,
|
|
100000000000100000100000000000200000200000000000,
|
|
100000000000100000100000000000000000000000000000,
|
|
100000000000100000100000000000200000200000000000,
|
|
100000000000100000100000000000000000000000000000,
|
|
100000000000200000200000000000200000200000000000,
|
|
500000000000000000000000000000000000000000000000,
|
|
000000000000000000000080000000000000000000000000,
|
|
100000000000000000100000100000000000200000000000,
|
|
100000000000000000100000100000000000000000000000,
|
|
100000000000000000100000100000000000200000000000,
|
|
100000000000000000100000100000000000000000000000,
|
|
100000000000100000000000100000000000100000000000,
|
|
100000200000100000000000100000200000100000000000,
|
|
500000000000000000000000000000000000000000000080,
|
|
000000000000000000000000000000000000000000000000,
|
|
#GOGOSTART
|
|
100000000000100000000000100000100000000000000000,
|
|
100000000000100000000000100000100000000000000000,
|
|
100000000000100000000000200000200000000000000000,
|
|
100000000000100000000000200000200000000000000000,
|
|
100000000000100000000000100000100000000000000000,
|
|
100000000000100000000000100000100000000000000000,
|
|
500000000000000000000000000000000000000000000000,
|
|
000000000080000000000000000000000000000000000000,
|
|
100000000000100000000000100000100000000000000000,
|
|
100000000000100000000000100000100000000000000000,
|
|
100000000000100000000000200000200000000000000000,
|
|
100000000000100000000000200000200000000000000000,
|
|
100000000000100000000000100000100000000000000000,
|
|
100000000000100000000000100000100000000000000000,
|
|
500000000000000000000000000000000000000000000000,
|
|
000000000080000000000000000000000000000000000000,
|
|
700000000000000000000000000000000000000000000000,
|
|
000000000000000000000000000000000000000000000000,
|
|
000000000000000000000000000000000000000000000800,
|
|
000000000000000000000000000000000000000000000000,
|
|
700000000000000000000000000000000000000000000000,
|
|
000000000000000000000000000000000000000000000800,
|
|
000000000000000000000000000000000000000000000000,
|
|
300000000000300000000000400000000000400000000000,
|
|
#GOGOEND
|
|
100000000000100000000000100000000000100000000000,
|
|
100000200000100000000000100000200000100000000000,
|
|
100000000000100000000000100000000000100000000000,
|
|
100000200000100000000000100000200000100000000000,
|
|
100000000000100000000000100000000000100000000000,
|
|
100000200000100000000000100000200000100000000000,
|
|
300000000000300000000000400000000000400000000000,
|
|
300000000000000000000000000000300000400000000000,
|
|
|
|
|
|
#END
|
|
|
|
|
|
COURSE:Easy
|
|
LEVEL:3
|
|
BALLOON:20,15
|
|
SCOREINIT:690
|
|
SCOREDIFF:160
|
|
|
|
|
|
#START
|
|
|
|
|
|
000000000000000000000000000000000000000000000000,
|
|
100000000000100000000000100000000000100000000000,
|
|
000000000000000000000000000000000000000000000000,
|
|
100000000000100000000000100000000000100000000000,
|
|
000000000000000000000000000000000000000000000000,
|
|
100000000000100000000000100000000000100000000000,
|
|
000000000000000000000000000000000000000000000000,
|
|
500000000000000000000000000080000000000000000000,
|
|
100000000000000000000000100000000000000000000000,
|
|
100000000000100000000000100000000000000000000000,
|
|
100000000000000000000000100000000000000000000000,
|
|
100000000000100000000000100000000000000000000000,
|
|
100000000000000000000000100000000000000000000000,
|
|
100000000000100000000000100000000000000000000000,
|
|
300000000000000000000000300000000000000000000000,
|
|
300000000000000000000000000000000000000000000000,
|
|
100000000000000000000000100000000000000000000000,
|
|
200000000000000000000000200000000000000000000000,
|
|
100000000000100000000000100000000000000000000000,
|
|
200000000000200000000000200000000000000000000000,
|
|
100000000000000000000000100000000000000000000000,
|
|
200000000000000000000000200000000000000000000000,
|
|
100000000000100000000000100000000000000000000000,
|
|
200000000000200000000000200000000000000000000000,
|
|
100000000000000000000000000000000000100000000000,
|
|
100000000000000000000000100000000000000000000000,
|
|
100000000000000000000000000000000000100000000000,
|
|
100000000000000000000000100000000000000000000000,
|
|
100000000000000000000000000000000000100000000000,
|
|
100000000000000000000000100000000000000000000000,
|
|
500000000000000000000000000000000000000000000000,
|
|
000000000000000000000080000000000000000000000000,
|
|
100000000000000000000000000000000000100000000000,
|
|
200000000000000000000000200000000000000000000000,
|
|
100000000000000000000000000000000000100000000000,
|
|
200000000000000000000000200000000000000000000000,
|
|
100000000000100000000000100000000000100000000000,
|
|
100000000000100000000000100000000000100000000000,
|
|
500000000000000000000000000000000000000000000080,
|
|
000000000000000000000000000000000000000000000000,
|
|
#GOGOSTART
|
|
100000000000100000000000100000000000000000000000,
|
|
100000000000100000000000200000000000000000000000,
|
|
100000000000100000000000100000000000000000000000,
|
|
100000000000100000000000200000000000000000000000,
|
|
100000000000100000000000100000000000000000000000,
|
|
100000000000100000000000200000000000000000000000,
|
|
500000000000000000000000000000000000000000000000,
|
|
000000000080000000000000000000000000000000000000,
|
|
100000000000100000000000100000000000000000000000,
|
|
100000000000100000000000200000000000000000000000,
|
|
100000000000100000000000100000000000000000000000,
|
|
100000000000100000000000200000000000000000000000,
|
|
100000000000100000000000100000000000000000000000,
|
|
100000000000100000000000200000000000000000000000,
|
|
500000000000000000000000000000000000000000000000,
|
|
000000000080000000000000000000000000000000000000,
|
|
700000000000000000000000000000000000000000000000,
|
|
000000000000000000000000000000000000000000000000,
|
|
000000000000000000000000000000000000000000000800,
|
|
000000000000000000000000000000000000000000000000,
|
|
700000000000000000000000000000000000000000000000,
|
|
000000000000000000000000000000000000000000000800,
|
|
000000000000000000000000000000000000000000000000,
|
|
300000000000300000000000400000000000400000000000,
|
|
#GOGOEND
|
|
100000000000000000000000100000000000000000000000,
|
|
100000000000100000000000100000000000100000000000,
|
|
100000000000000000000000100000000000000000000000,
|
|
100000000000100000000000100000000000100000000000,
|
|
100000000000000000000000100000000000000000000000,
|
|
100000000000100000000000100000000000100000000000,
|
|
300000000000300000000000300000000000300000000000,
|
|
300000000000000000000000000000000000400000000000,
|
|
|
|
|
|
#END
|
|
|