forked from ESE/ESE
323 lines
4.6 KiB
Plaintext
323 lines
4.6 KiB
Plaintext
//TJADB Project
|
|
TITLE:Koi Oto to Amazora
|
|
TITLEJA:恋音と雨空
|
|
SUBTITLE:--AAA
|
|
BPM:129
|
|
WAVE:Koi Oto to Amazora.ogg
|
|
OFFSET:-2.003
|
|
DEMOSTART:88.427
|
|
|
|
COURSE:Oni
|
|
LEVEL:7
|
|
BALLOON:30,20
|
|
SCOREINIT:740
|
|
SCOREDIFF:160
|
|
|
|
|
|
#START
|
|
|
|
|
|
1000202220202000,
|
|
2200,
|
|
2,
|
|
2000202020222020,
|
|
500000000000000008000000200000200200200000200000,
|
|
500000000000000008000000100000100000200000200000,
|
|
1212,
|
|
#BPMCHANGE 130.02
|
|
500000000000000008000000100000100000200000200000,
|
|
#BPMCHANGE 129
|
|
30112122,
|
|
12104121,
|
|
4000102011102020,
|
|
12104000,
|
|
10112021,
|
|
2210201010202010,
|
|
7,
|
|
08,
|
|
10210020,
|
|
1022202011102220,
|
|
10210020,
|
|
10210020,
|
|
10210020,
|
|
1022202011102220,
|
|
11212120,
|
|
1010201020222000,
|
|
11212120,
|
|
1010201020222000,
|
|
11212120,
|
|
1010201020222000,
|
|
12121125,
|
|
000000000000000000000000000000000000000008000000,
|
|
1011201020102000,
|
|
1011201020222000,
|
|
1011201020102000,
|
|
1011201020222000,
|
|
1011201020102000,
|
|
1011201020222000,
|
|
12121125,
|
|
000000000008000000000000100000000000100000000000,
|
|
4001201020102220,
|
|
1001201020112020,
|
|
1001201020102220,
|
|
1001201020112020,
|
|
1001202010012020,
|
|
1001202010001000,
|
|
4011201020102210,
|
|
4010201020102022,
|
|
1,//47
|
|
|
|
#GOGOSTART
|
|
1000201020112020,
|
|
1020100010212020,
|
|
1000201020112020,
|
|
1000000010212010,
|
|
500000000000000008000000200000100200100000200000,
|
|
500000000000000008000000100000100000200000200000,
|
|
1022201020222020,
|
|
1011202011112222,
|
|
1000201020112020,
|
|
1010200010212020,
|
|
1000201020112020,
|
|
1011202011112222,
|
|
1011201020112020,
|
|
1021201020121020,
|
|
7,
|
|
8,//63
|
|
|
|
#GOGOEND
|
|
|
|
|
|
#END
|
|
|
|
|
|
COURSE:Hard
|
|
LEVEL:5
|
|
BALLOON:26,16
|
|
SCOREINIT:680
|
|
SCOREDIFF:185
|
|
|
|
#START
|
|
1000202220202000,
|
|
2200,
|
|
2,
|
|
2000202020222020,
|
|
500000000000000008000000200000200200200000200000,
|
|
500000000000000008000000100000100000200000200000,
|
|
1212,
|
|
500000000000000008000000100000100000100000000000,
|
|
30112022,
|
|
12104120,
|
|
40121120,
|
|
12104000,
|
|
10212022,
|
|
10211221,
|
|
7,
|
|
08,
|
|
10210020,
|
|
12221122,
|
|
10210020,
|
|
10210020,
|
|
10210020,
|
|
12221122,
|
|
10212120,
|
|
10212220,
|
|
10212120,
|
|
10212220,
|
|
10212120,
|
|
10212220,
|
|
12121125,
|
|
000000000000000000000000000000000000000008000000,
|
|
11212120,
|
|
11212220,
|
|
11212120,
|
|
11212220,
|
|
11212120,
|
|
11212220,
|
|
12121125,
|
|
000000000008000000000000100000000000100000000000,
|
|
4001001020102000,
|
|
1001001020102020,
|
|
1001001020102000,
|
|
1001001020102020,
|
|
1001001020020020,
|
|
1001001010001000,
|
|
2022201020101110,
|
|
2010201020102011,
|
|
1,//47
|
|
|
|
#GOGOSTART
|
|
1000201010111020,
|
|
12101122,
|
|
10212122,
|
|
1000000010111010,
|
|
500000000000000008000000200000200200200000200000,
|
|
500000000000000008000000100000100000200000200000,
|
|
10221020,
|
|
12221120,
|
|
1000201020111020,
|
|
11201122,
|
|
10212122,
|
|
12221120,
|
|
10212022,
|
|
10211221,
|
|
9009,
|
|
8,//63
|
|
|
|
#GOGOEND
|
|
,
|
|
#END
|
|
|
|
COURSE:Normal
|
|
LEVEL:4
|
|
BALLOON:9,17,9,12
|
|
SCOREINIT:880
|
|
SCOREDIFF:278
|
|
|
|
#START
|
|
10222020,
|
|
2200,
|
|
2,
|
|
25,
|
|
000000000000000008000000700000000000000000000000,
|
|
0000080010101000,
|
|
1212,
|
|
500000000000000008000000000000000000000000000000,
|
|
10111010,
|
|
11100000,
|
|
10111010,
|
|
10001111,
|
|
1212,
|
|
10011111,
|
|
7,
|
|
08,
|
|
10210020,
|
|
34,
|
|
10210020,
|
|
10210020,
|
|
10210020,
|
|
34,
|
|
10010020,
|
|
10010220,
|
|
10010020,
|
|
10010220,
|
|
10010020,
|
|
10010220,
|
|
10101115,
|
|
000000000000000000000000000000000008000000000000,
|
|
10010020,
|
|
10010120,
|
|
10010020,
|
|
10010120,
|
|
10010020,
|
|
10010120,
|
|
10101115,
|
|
000000000008000000000000000000000000000000000000,
|
|
10011020,
|
|
10022000,
|
|
10011020,
|
|
10022000,
|
|
1001001010000000,
|
|
1001001010000000,
|
|
45,
|
|
000000000000000000000000000000000000000000000008,
|
|
,//47
|
|
|
|
#GOGOSTART
|
|
10111020,
|
|
11102020,
|
|
10111020,
|
|
35,
|
|
000000000000000008000000700000000000000000000000,
|
|
0000080010101000,
|
|
1212,
|
|
500000000000000008000000000000000000000000000000,
|
|
10111020,
|
|
11102020,
|
|
10111020,
|
|
10001111,
|
|
1212,
|
|
10011111,
|
|
9009,
|
|
8,//63
|
|
|
|
#GOGOEND
|
|
,
|
|
#END
|
|
|
|
COURSE:Easy
|
|
LEVEL:3
|
|
BALLOON:7,19,7,15
|
|
SCOREINIT:830
|
|
SCOREDIFF:315
|
|
|
|
#START
|
|
12,
|
|
2200,
|
|
2,
|
|
25,
|
|
000000000000000008000000700000000000000000000000,
|
|
0000080000000000,
|
|
1111,
|
|
500000000000000008000000000000000000000000000000,
|
|
1110,
|
|
1100,
|
|
1110,
|
|
12,
|
|
1212,
|
|
17,
|
|
,
|
|
08,
|
|
1202,
|
|
34,
|
|
1202,
|
|
1202,
|
|
1202,
|
|
34,
|
|
10010000,
|
|
10010000,
|
|
10010000,
|
|
10010000,
|
|
10010000,
|
|
10010000,
|
|
10101015,
|
|
000000000000000000000000000008000000000000000000,
|
|
10010020,
|
|
10010020,
|
|
10010020,
|
|
10010020,
|
|
10010020,
|
|
10010020,
|
|
10101015,
|
|
000000000008000000000000000000000000000000000000,
|
|
10011000,
|
|
10011000,
|
|
10011000,
|
|
10011000,
|
|
41,
|
|
21,
|
|
45,
|
|
000000000000000000000000000000000000000000000008,
|
|
,//47
|
|
|
|
#GOGOSTART
|
|
1110,
|
|
1100,
|
|
1110,
|
|
15,
|
|
000000000000000008000000700000000000000000000000,
|
|
0000080000000000,
|
|
1212,
|
|
500000000000000008000000000000000000000000000000,
|
|
1110,
|
|
1100,
|
|
1110,
|
|
1022,
|
|
1212,
|
|
10090000,
|
|
00000900,
|
|
8,//63
|
|
|
|
#GOGOEND
|
|
,
|
|
#END |