forked from ESE/ESE
609 lines
22 KiB
Plaintext
609 lines
22 KiB
Plaintext
//TJADB Project
|
|
TITLE:Koi no Fuga
|
|
TITLEJA:恋のフーガ
|
|
SUBTITLE:--W
|
|
BPM:139
|
|
WAVE:Koi no Fuga.ogg
|
|
OFFSET:-4.386
|
|
DEMOSTART:57.227
|
|
|
|
COURSE:Oni
|
|
LEVEL:5
|
|
|
|
|
|
#START
|
|
|
|
|
|
100000100000200200200200200000000000100000100000,
|
|
100000100000200200200200200000200000200000000000,
|
|
100000000000100000100000100000000000200000200000,
|
|
000000100000100000100000100000000000200000000000,
|
|
100000000000100000100000100000000000200000200000,
|
|
000000100000100000100000000000000000000000000000,
|
|
100000000000100000100100200000000000100000000000,
|
|
100000000000100000100100200000000000100000000000,
|
|
100000000000100000000000100000100000000000100000,
|
|
000000200000200000200200200000000000000000000000,
|
|
100000000000100000100100200000000000100000000000,
|
|
100000000000100000100100200000000000100000000000,
|
|
100000000000100000000000100000100000000000100000,
|
|
000000200000200000200200200000000000000000000000,
|
|
100000000000100000200200100000100000200000000000,
|
|
100000000000100000200200100000100000200000000000,
|
|
100000000000100000000000100000100000000000100000,
|
|
000000200000200000200200200000000000000000000000,
|
|
100000000000100000200200100000100000200000000000,
|
|
100000000000100000200200100000100000200000000000,
|
|
100000000000100000000000100000100000000000100000,
|
|
000000200000200000200000200200200000200200200000,
|
|
|
|
#GOGOSTART
|
|
100000200000100100200000100000200000100100200000,
|
|
100000200000100100200000100000000000000000000000,
|
|
100000100100200000100100200000100100200000100100,
|
|
200000100100200000100000200000000000000000000000,
|
|
100000200000100100200000100000200000100100200000,
|
|
100000200000100100200000100000000000000000000000,
|
|
300000000000000000000000300000000000000000000000,
|
|
000000100000100000100000100000200200200000000000,
|
|
000000100000100000100000100000000000000000000000,
|
|
|
|
#GOGOEND
|
|
100000000000100000200200100000100100200000000000,
|
|
100000000000100000200200100000100100200000000000,
|
|
100000000000100000000000100000100000000000100000,
|
|
000000100000200000100100200000000000000000000000,
|
|
100000000000100000200200100000100100200000000000,
|
|
100000000000100000200200100000100100200000000000,
|
|
100000000000100000000000100000100000000000100000,
|
|
000000200000100000200000100100200000100100200000,
|
|
100000100000200200200200200000200000100000100000,
|
|
100000100000200200200200200000200000200000000000,
|
|
100000100000200200200200200000200000100000100000,
|
|
100000100000200200200200200000200000100000100000,
|
|
300000300000000000000000000000000000000000000000,
|
|
|
|
|
|
#END
|
|
|
|
|
|
COURSE:Hard
|
|
LEVEL:5
|
|
|
|
STYLE:Double
|
|
SCOREINIT:1020
|
|
|
|
|
|
#START P1
|
|
|
|
|
|
100000100000000000000000000000000000100000100000,
|
|
100000100000000000000000000000000000000000000000,
|
|
100000000000100000000000100000000000100000100000,
|
|
000000100000100000100000100000000000200000000000,
|
|
100000000000100000000000100000000000100000100000,
|
|
000000100000100000200000000000000000000000000000,
|
|
100000000000000000100000200000000000100000000000,
|
|
100000000000000000100000200000000000100000000000,
|
|
100000000000100000000000100000100000000000100000,
|
|
000000000000000000000000000000000000000000000000,
|
|
100000000000000000100000200000000000100000000000,
|
|
100000000000000000100000200000000000100000000000,
|
|
100000000000100000000000100000100000000000100000,
|
|
000000000000000000000000000000000000000000000000,
|
|
100000000000100000100000200000000000100000000000,
|
|
100000000000100000100000200000000000100000000000,
|
|
100000000000100000000000100000100000000000100000,
|
|
000000200000000000200200200000000000000000000000,
|
|
100000000000100000100000200000000000100000000000,
|
|
100000000000100000100000200000000000100000000000,
|
|
100000000000100000000000100000100000000000100000,
|
|
000000200000200000200000200200200000200200200000,
|
|
|
|
#GOGOSTART
|
|
11201120,
|
|
,
|
|
11,
|
|
1010111010101000,
|
|
100000100100100000100100100000100100100000100100,
|
|
100000100100100000000000100000000000000000000000,
|
|
300000000000000000000000300000000000000000000000,
|
|
000000100000100000100000100000000000200000000000,
|
|
000000100000100000100000100000000000000000000000,
|
|
|
|
#GOGOEND
|
|
100000000000100000100000200000000000100000000000,
|
|
100000000000100000100000200000000000100000000000,
|
|
100000000000100000000000100000100000000000100000,
|
|
000000200000000000200200200000000000000000000000,
|
|
100000000000100000100000200000000000100000000000,
|
|
100000000000100000100000200000000000100000000000,
|
|
100000000000100000000000100000100000000000100000,
|
|
000000200000200000200000200200200000200200200000,
|
|
100000100000200200200200200000000000100000100000,
|
|
100000100000200200200200200000200000200000000000,
|
|
100000100000200200200200200000000000100000100000,
|
|
100000100000200200200200200000200000200000000000,
|
|
300000300000000000000000000000000000000000000000,
|
|
|
|
|
|
#END
|
|
|
|
|
|
#START P2
|
|
|
|
|
|
100000100000000000000000000000000000100000100000,
|
|
100000100000000000000000000000000000000000000000,
|
|
100000000000100000000000100000000000100000100000,
|
|
000000100000100000100000100000000000200000000000,
|
|
100000000000100000000000100000000000100000100000,
|
|
000000100000100000200000000000000000000000000000,
|
|
100000000000000000100000200000000000100000000000,
|
|
100000000000000000100000200000000000100000000000,
|
|
100000000000100000000000100000100000000000100000,
|
|
000000000000000000000000000000000000000000000000,
|
|
100000000000000000100000200000000000100000000000,
|
|
100000000000000000100000200000000000100000000000,
|
|
100000000000100000000000100000100000000000100000,
|
|
000000000000000000000000000000000000000000000000,
|
|
100000000000100000100000200000000000100000000000,
|
|
100000000000100000100000200000000000100000000000,
|
|
100000000000100000000000100000100000000000100000,
|
|
000000200000000000200200200000000000000000000000,
|
|
100000000000100000100000200000000000100000000000,
|
|
100000000000100000100000200000000000100000000000,
|
|
100000000000100000000000100000100000000000100000,
|
|
000000200000200000200000200200200000200200200000,
|
|
|
|
#GOGOSTART
|
|
11,
|
|
1010111010101000,
|
|
11201120,
|
|
,
|
|
100000100100100000100100100000100100100000100100,
|
|
100000100100100000000000100000000000000000000000,
|
|
300000000000000000000000300000000000000000000000,
|
|
000000100000100000100000100000000000200000000000,
|
|
000000100000100000100000100000000000000000000000,
|
|
|
|
#GOGOEND
|
|
100000000000100000100000200000000000100000000000,
|
|
100000000000100000100000200000000000100000000000,
|
|
100000000000100000000000100000100000000000100000,
|
|
000000200000000000200200200000000000000000000000,
|
|
100000000000100000100000200000000000100000000000,
|
|
100000000000100000100000200000000000100000000000,
|
|
100000000000100000000000100000100000000000100000,
|
|
000000200000200000200000200200200000200200200000,
|
|
100000100000200200200200200000000000100000100000,
|
|
100000100000200200200200200000200000200000000000,
|
|
100000100000200200200200200000000000100000100000,
|
|
100000100000200200200200200000200000200000000000,
|
|
300000300000000000000000000000000000000000000000,
|
|
|
|
|
|
#END
|
|
|
|
|
|
STYLE:Single
|
|
SCOREINIT:950
|
|
SCOREDIFF:260
|
|
|
|
|
|
#START
|
|
|
|
|
|
100000100000000000000000000000000000100000100000,
|
|
100000100000000000000000000000000000000000000000,
|
|
100000000000100000000000100000000000100000100000,
|
|
000000100000100000100000100000000000200000000000,
|
|
100000000000100000000000100000000000100000100000,
|
|
000000100000100000200000000000000000000000000000,
|
|
100000000000000000100000200000000000100000000000,
|
|
100000000000000000100000200000000000100000000000,
|
|
100000000000100000000000100000100000000000100000,
|
|
000000000000000000000000000000000000000000000000,
|
|
100000000000000000100000200000000000100000000000,
|
|
100000000000000000100000200000000000100000000000,
|
|
100000000000100000000000100000100000000000100000,
|
|
000000000000000000000000000000000000000000000000,
|
|
100000000000100000100000200000000000100000000000,
|
|
100000000000100000100000200000000000100000000000,
|
|
100000000000100000000000100000100000000000100000,
|
|
000000200000000000200200200000000000000000000000,
|
|
100000000000100000100000200000000000100000000000,
|
|
100000000000100000100000200000000000100000000000,
|
|
100000000000100000000000100000100000000000100000,
|
|
000000200000200000200000200200200000200200200000,
|
|
|
|
#GOGOSTART
|
|
100000100000100100100000100000100000100100100000,
|
|
100000100000100100100000100000000000000000000000,
|
|
100000100100100000100100100000100100100000100100,
|
|
100000100100100000000000100000000000000000000000,
|
|
100000100000100100100000100000100000100100100000,
|
|
100000100000100100100000100000000000000000000000,
|
|
300000000000000000000000300000000000000000000000,
|
|
000000100000100000100000100000000000200000000000,
|
|
000000100000100000100000100000000000000000000000,
|
|
|
|
#GOGOEND
|
|
100000000000100000100000200000000000100000000000,
|
|
100000000000100000100000200000000000100000000000,
|
|
100000000000100000000000100000100000000000100000,
|
|
000000200000000000200200200000000000000000000000,
|
|
100000000000100000100000200000000000100000000000,
|
|
100000000000100000100000200000000000100000000000,
|
|
100000000000100000000000100000100000000000100000,
|
|
000000200000200000200000200200200000200200200000,
|
|
100000100000200200200200200000000000100000100000,
|
|
100000100000200200200200200000200000200000000000,
|
|
100000100000200200200200200000000000100000100000,
|
|
100000100000200200200200200000200000200000000000,
|
|
300000300000000000000000000000000000000000000000,
|
|
|
|
|
|
#END
|
|
|
|
|
|
COURSE:Normal
|
|
LEVEL:3
|
|
|
|
STYLE:Double
|
|
SCOREINIT:1100
|
|
|
|
|
|
#START P1
|
|
|
|
|
|
100000100000000000000000000000000000100000100000,
|
|
100000100000000000000000000000000000000000000000,
|
|
100000000000100000000000100000000000000000000000,
|
|
100000000000100000100000100000000000000000000000,
|
|
100000000000100000000000100000000000000000000000,
|
|
100000000000100000100000000000000000000000000000,
|
|
100000000000000000100000100000000000000000000000,
|
|
100000000000000000100000100000000000000000000000,
|
|
100000000000100000000000100000000000000000000000,
|
|
100000000000000000000000000000000000000000000000,
|
|
100000000000000000100000100000000000000000000000,
|
|
100000000000000000100000100000000000000000000000,
|
|
100000000000100000000000100000000000000000000000,
|
|
100000000000000000000000000000000000000000000000,
|
|
100000000000000000100000200000000000000000000000,
|
|
100000000000000000100000200000000000000000000000,
|
|
100000000000100000000000100000000000000000000000,
|
|
100000000000000000000000000000000000000000000000,
|
|
100000000000000000100000200000000000000000000000,
|
|
100000000000000000100000200000000000000000000000,
|
|
100000000000100000000000100000000000000000000000,
|
|
100000000000000000000000000000000000000000000000,
|
|
|
|
#GOGOSTART
|
|
11001100,
|
|
11001100,
|
|
11,
|
|
2220,
|
|
100000000000100000000000200000000000200000000000,
|
|
100000000000100000000000200000000000000000000000,
|
|
300000000000000000000000300000000000000000000000,
|
|
000000100000100000100000100000000000000000000000,
|
|
000000100000100000100000100000000000000000000000,
|
|
|
|
#GOGOEND
|
|
100000000000000000100000200000000000100000000000,
|
|
100000000000000000100000200000000000100000000000,
|
|
100000000000100000000000100000000000000000000000,
|
|
100000000000000000000000000000000000000000000000,
|
|
100000000000000000100000200000000000100000000000,
|
|
100000000000000000100000200000000000100000000000,
|
|
100000000000100000000000100000000000000000000000,
|
|
100000000000000000000000000000000000000000000000,
|
|
100000100000000000000000000000000000100000100000,
|
|
100000100000000000000000000000000000000000000000,
|
|
100000100000000000000000000000000000100000100000,
|
|
100000100000000000000000000000000000000000000000,
|
|
300000300000000000000000000000000000000000000000,
|
|
|
|
|
|
#END
|
|
|
|
|
|
#START P2
|
|
|
|
|
|
100000100000000000000000000000000000100000100000,
|
|
100000100000000000000000000000000000000000000000,
|
|
100000000000100000000000100000000000000000000000,
|
|
100000000000100000100000100000000000000000000000,
|
|
100000000000100000000000100000000000000000000000,
|
|
100000000000100000100000000000000000000000000000,
|
|
100000000000000000100000100000000000000000000000,
|
|
100000000000000000100000100000000000000000000000,
|
|
100000000000100000000000100000000000000000000000,
|
|
100000000000000000000000000000000000000000000000,
|
|
100000000000000000100000100000000000000000000000,
|
|
100000000000000000100000100000000000000000000000,
|
|
100000000000100000000000100000000000000000000000,
|
|
100000000000000000000000000000000000000000000000,
|
|
100000000000000000100000200000000000000000000000,
|
|
100000000000000000100000200000000000000000000000,
|
|
100000000000100000000000100000000000000000000000,
|
|
100000000000000000000000000000000000000000000000,
|
|
100000000000000000100000200000000000000000000000,
|
|
100000000000000000100000200000000000000000000000,
|
|
100000000000100000000000100000000000000000000000,
|
|
100000000000000000000000000000000000000000000000,
|
|
|
|
#GOGOSTART
|
|
11,
|
|
2220,
|
|
11001100,
|
|
11001100,
|
|
100000000000100000000000200000000000200000000000,
|
|
100000000000100000000000200000000000000000000000,
|
|
300000000000000000000000300000000000000000000000,
|
|
000000100000100000100000100000000000000000000000,
|
|
000000100000100000100000100000000000000000000000,
|
|
|
|
#GOGOEND
|
|
100000000000000000100000200000000000100000000000,
|
|
100000000000000000100000200000000000100000000000,
|
|
100000000000100000000000100000000000000000000000,
|
|
100000000000000000000000000000000000000000000000,
|
|
100000000000000000100000200000000000100000000000,
|
|
100000000000000000100000200000000000100000000000,
|
|
100000000000100000000000100000000000000000000000,
|
|
100000000000000000000000000000000000000000000000,
|
|
100000100000000000000000000000000000100000100000,
|
|
100000100000000000000000000000000000000000000000,
|
|
100000100000000000000000000000000000100000100000,
|
|
100000100000000000000000000000000000000000000000,
|
|
300000300000000000000000000000000000000000000000,
|
|
|
|
|
|
#END
|
|
|
|
|
|
STYLE:Single
|
|
SCOREINIT:1100
|
|
SCOREDIFF:430
|
|
|
|
|
|
#START
|
|
|
|
|
|
100000100000000000000000000000000000100000100000,
|
|
100000100000000000000000000000000000000000000000,
|
|
100000000000100000000000100000000000000000000000,
|
|
100000000000100000100000100000000000000000000000,
|
|
100000000000100000000000100000000000000000000000,
|
|
100000000000100000100000000000000000000000000000,
|
|
100000000000000000100000100000000000000000000000,
|
|
100000000000000000100000100000000000000000000000,
|
|
100000000000100000000000100000000000000000000000,
|
|
100000000000000000000000000000000000000000000000,
|
|
100000000000000000100000100000000000000000000000,
|
|
100000000000000000100000100000000000000000000000,
|
|
100000000000100000000000100000000000000000000000,
|
|
100000000000000000000000000000000000000000000000,
|
|
100000000000000000100000200000000000000000000000,
|
|
100000000000000000100000200000000000000000000000,
|
|
100000000000100000000000100000000000000000000000,
|
|
100000000000000000000000000000000000000000000000,
|
|
100000000000000000100000200000000000000000000000,
|
|
100000000000000000100000200000000000000000000000,
|
|
100000000000100000000000100000000000000000000000,
|
|
100000000000000000000000000000000000000000000000,
|
|
|
|
#GOGOSTART
|
|
100000000000100000000000200000000000200000000000,
|
|
100000000000100000000000200000000000000000000000,
|
|
100000000000200000000000100000000000200000000000,
|
|
100000000000200000000000100000000000000000000000,
|
|
100000000000100000000000200000000000200000000000,
|
|
100000000000100000000000200000000000000000000000,
|
|
300000000000000000000000300000000000000000000000,
|
|
000000100000100000100000100000000000000000000000,
|
|
000000100000100000100000100000000000000000000000,
|
|
|
|
#GOGOEND
|
|
100000000000000000100000200000000000100000000000,
|
|
100000000000000000100000200000000000100000000000,
|
|
100000000000100000000000100000000000000000000000,
|
|
100000000000000000000000000000000000000000000000,
|
|
100000000000000000100000200000000000100000000000,
|
|
100000000000000000100000200000000000100000000000,
|
|
100000000000100000000000100000000000000000000000,
|
|
100000000000000000000000000000000000000000000000,
|
|
100000100000000000000000000000000000100000100000,
|
|
100000100000000000000000000000000000000000000000,
|
|
100000100000000000000000000000000000100000100000,
|
|
100000100000000000000000000000000000000000000000,
|
|
300000300000000000000000000000000000000000000000,
|
|
|
|
|
|
#END
|
|
|
|
|
|
COURSE:Easy
|
|
LEVEL:4
|
|
|
|
STYLE:Double
|
|
SCOREINIT:1200
|
|
SCOREDIFF:420
|
|
|
|
|
|
#START P1
|
|
|
|
|
|
100000100000000000000000000000000000100000000000,
|
|
100000000000000000000000000000000000000000000000,
|
|
100000000000000000000000100000000000000000000000,
|
|
100000000000100000000000100000000000000000000000,
|
|
100000000000000000000000100000000000000000000000,
|
|
100000000000100000100000000000000000000000000000,
|
|
100000000000000000100000100000000000000000000000,
|
|
100000000000000000100000100000000000000000000000,
|
|
100000000000000000000000100000000000000000000000,
|
|
100000000000000000000000000000000000000000000000,
|
|
100000000000000000100000100000000000000000000000,
|
|
100000000000000000100000100000000000000000000000,
|
|
100000000000000000000000100000000000000000000000,
|
|
100000000000000000000000000000000000000000000000,
|
|
100000000000000000100000100000000000000000000000,
|
|
100000000000000000100000100000000000000000000000,
|
|
100000000000100000000000100000000000000000000000,
|
|
100000000000000000000000000000000000000000000000,
|
|
100000000000000000100000100000000000000000000000,
|
|
100000000000000000100000100000000000000000000000,
|
|
100000000000100000000000100000000000000000000000,
|
|
100000000000000000000000000000000000000000000000,
|
|
|
|
#GOGOSTART
|
|
11,
|
|
11,
|
|
0202,
|
|
0200,
|
|
100000000000000000000000100000000000000000000000,
|
|
200000000000200000000000200000000000000000000000,
|
|
300000000000000000000000300000000000000000000000,
|
|
000000100000100000100000100000000000000000000000,
|
|
000000100000100000100000100000000000000000000000,
|
|
|
|
#GOGOEND
|
|
100000000000000000100000100000000000000000000000,
|
|
100000000000000000100000100000000000000000000000,
|
|
100000000000000000000000100000000000000000000000,
|
|
100000000000000000000000000000000000000000000000,
|
|
100000000000000000100000100000000000000000000000,
|
|
100000000000000000100000100000000000000000000000,
|
|
100000000000000000000000100000000000000000000000,
|
|
100000000000000000000000000000000000000000000000,
|
|
100000100000000000000000000000000000100000000000,
|
|
100000000000000000000000000000000000000000000000,
|
|
100000100000000000000000000000000000100000000000,
|
|
100000000000000000000000000000000000000000000000,
|
|
300000000000000000000000000000000000000000000000,
|
|
|
|
|
|
#END
|
|
|
|
|
|
#START P2
|
|
|
|
|
|
100000100000000000000000000000000000100000000000,
|
|
100000000000000000000000000000000000000000000000,
|
|
100000000000000000000000100000000000000000000000,
|
|
100000000000100000000000100000000000000000000000,
|
|
100000000000000000000000100000000000000000000000,
|
|
100000000000100000100000000000000000000000000000,
|
|
100000000000000000100000100000000000000000000000,
|
|
100000000000000000100000100000000000000000000000,
|
|
100000000000000000000000100000000000000000000000,
|
|
100000000000000000000000000000000000000000000000,
|
|
100000000000000000100000100000000000000000000000,
|
|
100000000000000000100000100000000000000000000000,
|
|
100000000000000000000000100000000000000000000000,
|
|
100000000000000000000000000000000000000000000000,
|
|
100000000000000000100000100000000000000000000000,
|
|
100000000000000000100000100000000000000000000000,
|
|
100000000000100000000000100000000000000000000000,
|
|
100000000000000000000000000000000000000000000000,
|
|
100000000000000000100000100000000000000000000000,
|
|
100000000000000000100000100000000000000000000000,
|
|
100000000000100000000000100000000000000000000000,
|
|
100000000000000000000000000000000000000000000000,
|
|
|
|
#GOGOSTART
|
|
0202,
|
|
0200,
|
|
11,
|
|
11,
|
|
100000000000000000000000100000000000000000000000,
|
|
200000000000200000000000200000000000000000000000,
|
|
300000000000000000000000300000000000000000000000,
|
|
000000100000100000100000100000000000000000000000,
|
|
000000100000100000100000100000000000000000000000,
|
|
|
|
#GOGOEND
|
|
100000000000000000100000100000000000000000000000,
|
|
100000000000000000100000100000000000000000000000,
|
|
100000000000000000000000100000000000000000000000,
|
|
100000000000000000000000000000000000000000000000,
|
|
100000000000000000100000100000000000000000000000,
|
|
100000000000000000100000100000000000000000000000,
|
|
100000000000000000000000100000000000000000000000,
|
|
100000000000000000000000000000000000000000000000,
|
|
100000100000000000000000000000000000100000000000,
|
|
100000000000000000000000000000000000000000000000,
|
|
100000100000000000000000000000000000100000000000,
|
|
100000000000000000000000000000000000000000000000,
|
|
300000000000000000000000000000000000000000000000,
|
|
|
|
|
|
#END
|
|
|
|
|
|
STYLE:Single
|
|
SCOREINIT:1200
|
|
|
|
|
|
#START
|
|
|
|
|
|
100000100000000000000000000000000000100000000000,
|
|
100000000000000000000000000000000000000000000000,
|
|
100000000000000000000000100000000000000000000000,
|
|
100000000000100000000000100000000000000000000000,
|
|
100000000000000000000000100000000000000000000000,
|
|
100000000000100000100000000000000000000000000000,
|
|
100000000000000000100000100000000000000000000000,
|
|
100000000000000000100000100000000000000000000000,
|
|
100000000000000000000000100000000000000000000000,
|
|
100000000000000000000000000000000000000000000000,
|
|
100000000000000000100000100000000000000000000000,
|
|
100000000000000000100000100000000000000000000000,
|
|
100000000000000000000000100000000000000000000000,
|
|
100000000000000000000000000000000000000000000000,
|
|
100000000000000000100000100000000000000000000000,
|
|
100000000000000000100000100000000000000000000000,
|
|
100000000000100000000000100000000000000000000000,
|
|
100000000000000000000000000000000000000000000000,
|
|
100000000000000000100000100000000000000000000000,
|
|
100000000000000000100000100000000000000000000000,
|
|
100000000000100000000000100000000000000000000000,
|
|
100000000000000000000000000000000000000000000000,
|
|
|
|
#GOGOSTART
|
|
100000000000000000000000100000000000000000000000,
|
|
200000000000200000000000200000000000000000000000,
|
|
100000000000000000000000100000000000000000000000,
|
|
200000000000200000000000200000000000000000000000,
|
|
100000000000000000000000100000000000000000000000,
|
|
200000000000200000000000200000000000000000000000,
|
|
300000000000000000000000300000000000000000000000,
|
|
000000100000100000100000100000000000000000000000,
|
|
000000100000100000100000100000000000000000000000,
|
|
|
|
#GOGOEND
|
|
100000000000000000100000100000000000000000000000,
|
|
100000000000000000100000100000000000000000000000,
|
|
100000000000000000000000100000000000000000000000,
|
|
100000000000000000000000000000000000000000000000,
|
|
100000000000000000100000100000000000000000000000,
|
|
100000000000000000100000100000000000000000000000,
|
|
100000000000000000000000100000000000000000000000,
|
|
100000000000000000000000000000000000000000000000,
|
|
100000100000000000000000000000000000100000000000,
|
|
100000000000000000000000000000000000000000000000,
|
|
100000100000000000000000000000000000100000000000,
|
|
100000000000000000000000000000000000000000000000,
|
|
100000100000000000000000000000000000000000000000,
|
|
|
|
|
|
#END
|
|
|