forked from ESE/ESE
316 lines
6.0 KiB
Plaintext
316 lines
6.0 KiB
Plaintext
//TJADB Project
|
|
TITLE:Labrador Retriever
|
|
TITLEJA:ラブラドール・レトリバー
|
|
SUBTITLE:--AKB48/Fragrance New Beads
|
|
BPM:135
|
|
WAVE:Labrador Retriever.ogg
|
|
OFFSET:-2.280
|
|
DEMOSTART:66.031
|
|
|
|
COURSE:Oni
|
|
LEVEL:7
|
|
BALLOON:12,12,20
|
|
SCOREINIT:670
|
|
SCOREDIFF:150
|
|
|
|
|
|
#START
|
|
|
|
|
|
100000000000200000000000100000200200200000100000,
|
|
000000100000000000200200100000000000200000000000,
|
|
100000000000100000000000100000200200200000100000,
|
|
000000100000200000500000000000000008000000100000,
|
|
000000100000200000000000200200100000200000100000,
|
|
000000100000200000100100200200100000200000100000,
|
|
000000100000200000000000200200100000200000100000,
|
|
000000100000200000100100200200100100200000000000,
|
|
100000100000200000200100100000100000200000200000,
|
|
100000100000200000200100100000100000200000000000,
|
|
100000100000200000200100100000100000200000200200,
|
|
200000200000000000200200200000200000200000000000,
|
|
100000100000200000200100100000100000200000200000,
|
|
100000100000200000200100100000100000200000100000,
|
|
000000100000200000000000200200100000200000100000,
|
|
000000100000200000100100200200100000200000000000,
|
|
100000100000200000200100100000100000200000200000,
|
|
100000100000200000200100100000100000200000000000,
|
|
100000100000200000200100100000100000200000200200,
|
|
200000200000000000200200200000200000200000000000,
|
|
100000100000200000200100100000100000200000200000,
|
|
100000100000200000200100100000100000200000100000,
|
|
000000100000200000000000200200100000200000100000,
|
|
000000100000200000100100200200100000200000100000,
|
|
200000100000200000100000200200100000200000100000,
|
|
200000100000200000100100200000300000300000300000,
|
|
400000000000000000000000200000000000000000200200,
|
|
100000000000100000000000200000000000000000000000,
|
|
200000000000200000000000200000000000200000000000,
|
|
100000200000100000200000300000000000400000000000,
|
|
100000100000200000100200100000100000200000000000,
|
|
100000100000200000100200100000700000000000000000,
|
|
000000000000800000000000000000700000000000000000,
|
|
000000000000800000000000000000000000000000100000,
|
|
100000200000000000100000200000000000000000300000,
|
|
000000300000000000300000400000000000000000000000,
|
|
|
|
#GOGOSTART
|
|
100000200000100000200100100200200000100000200000,
|
|
100000200000100000200100100200100000100000200000,
|
|
100000200000100000200100100200200000100000200000,
|
|
100000200000100000200100100200100000100000200000,
|
|
100000200000100000200100100200200000100000200000,
|
|
100000200000100000200100100200100000100000200000,
|
|
000000100000200000000000100000200000000000100000,
|
|
000000100000200000100100100000100000100000100000,
|
|
100000200000100000200100100200200000100000200000,
|
|
100000200000100000200100100200100000100000200000,
|
|
100000200000100000200100100200200000100000200000,
|
|
100000200000100000200100100200100000100000200000,
|
|
100000200000100000200100100200200000100000200000,
|
|
100000200000100000200100100200100000100000200000,
|
|
500000000000000000000000000000000000000000000000,
|
|
000008000000000000000000300000000000400000000000,
|
|
600000000000000000000000000000000008000000300000,
|
|
000000400000400000000000000000000000000000100000,
|
|
000000100000200000100100200200100000200000100000,
|
|
200000100000200000100000100100200200100000100100,
|
|
200000100000200000100100200000100000200000100100,
|
|
200000100100200000100100200000100200100000700000,
|
|
000000000000000000000000000000000000000000000008,
|
|
#GOGOEND
|
|
|
|
|
|
#END
|
|
|
|
|
|
COURSE:Hard
|
|
LEVEL:5
|
|
BALLOON:10,10,18
|
|
SCOREINIT:770
|
|
SCOREDIFF:218
|
|
|
|
|
|
#START
|
|
|
|
|
|
10201201,
|
|
01021020,
|
|
10201201,
|
|
000000100000200000500000000000000008000000100000,
|
|
01202001,
|
|
01202001,
|
|
01202003,
|
|
03404000,
|
|
10201120,
|
|
10201120,
|
|
1000200010102022,
|
|
2020002220202000,
|
|
10201120,
|
|
10201121,
|
|
01202001,
|
|
01202000,
|
|
10201120,
|
|
10201120,
|
|
1000200010102022,
|
|
2020002220202000,
|
|
10201120,
|
|
10201121,
|
|
01202001,
|
|
01202001,
|
|
01202003,
|
|
03404111,
|
|
42,
|
|
1120,
|
|
2222,
|
|
12123040,
|
|
10201120,
|
|
10200700,
|
|
00800700,
|
|
00700001,
|
|
11012003,
|
|
03034000,
|
|
|
|
#GOGOSTART
|
|
1000100011101000,
|
|
1000100011101010,
|
|
1000100011101000,
|
|
1000100011101010,
|
|
1000100011101000,
|
|
1000100011101010,
|
|
01201201,
|
|
0010201110101010,
|
|
2033,
|
|
3434,
|
|
5,
|
|
000008000000000000000000300000000000400000000000,
|
|
600000000000000000000000000000000008000000300000,
|
|
04400001,
|
|
01202001,
|
|
0010200020111010,
|
|
01202121,
|
|
2010201020221090,
|
|
000000000000000000000000000000000000000000000008,
|
|
|
|
#GOGOEND
|
|
|
|
|
|
#END
|
|
|
|
|
|
COURSE:Normal
|
|
LEVEL:4
|
|
BALLOON:7,7,7,12
|
|
SCOREINIT:850
|
|
SCOREDIFF:270
|
|
|
|
|
|
#START
|
|
|
|
|
|
1110,
|
|
1120,
|
|
10101005,
|
|
000000000000000000000000000000000008000000100000,
|
|
00101001,
|
|
00101001,
|
|
00101003,
|
|
0330,
|
|
10101110,
|
|
1110,
|
|
10101110,
|
|
2220,
|
|
10101110,
|
|
10101005,
|
|
000000000000000000000000000000000000000000000008,
|
|
,
|
|
10101110,
|
|
1110,
|
|
10101110,
|
|
2220,
|
|
10101101,
|
|
10101005,
|
|
000000000000000000000008000000000000000000100000,
|
|
00101001,
|
|
00101003,
|
|
0330,
|
|
12,
|
|
1120,
|
|
1111,
|
|
1033,
|
|
1212,
|
|
10100700,
|
|
00800700,
|
|
0800,
|
|
30004003,
|
|
03034000,
|
|
|
|
#GOGOSTART
|
|
10101110,
|
|
10101110,
|
|
20202220,
|
|
20202220,
|
|
10101110,
|
|
10101117,
|
|
00008005,
|
|
000000000000000000000000000000000008000000000000,
|
|
10101110,
|
|
10101110,
|
|
20202220,
|
|
20202220,
|
|
4033,
|
|
3434,
|
|
5,
|
|
000008000000000000000000300000000000400000000000,
|
|
600000000000000000000000000000000000000008000000,
|
|
00000001,
|
|
00101001,
|
|
00101001,
|
|
00101003,
|
|
00303009,
|
|
000000000000000000000000000000000000000000000008,
|
|
|
|
#GOGOEND
|
|
|
|
|
|
#END
|
|
|
|
|
|
COURSE:Easy
|
|
LEVEL:3
|
|
BALLOON:6,6,12,5,10
|
|
SCOREINIT:750
|
|
SCOREDIFF:258
|
|
|
|
|
|
#START
|
|
|
|
|
|
1110,
|
|
12,
|
|
10101005,
|
|
000000000000000000000000000000000008000000000000,
|
|
0110,
|
|
0110,
|
|
0110,
|
|
0330,
|
|
1110,
|
|
11,
|
|
1110,
|
|
2220,
|
|
1110,
|
|
10001005,
|
|
000000000000000000000000000000000000000000000008,
|
|
,
|
|
1110,
|
|
11,
|
|
1110,
|
|
2220,
|
|
1110,
|
|
10001005,
|
|
000000000000000000000008000000000000000000000000,
|
|
0110,
|
|
0110,
|
|
0330,
|
|
12,
|
|
1120,
|
|
1111,
|
|
1033,
|
|
12,
|
|
10100700,
|
|
00800700,
|
|
0800,
|
|
7,
|
|
08,
|
|
|
|
#GOGOSTART
|
|
1111,
|
|
1110,
|
|
2222,
|
|
2220,
|
|
1111,
|
|
10101007,
|
|
00008005,
|
|
000000000000000000000000000008000000000000000000,
|
|
1111,
|
|
1110,
|
|
2222,
|
|
2220,
|
|
4033,
|
|
3434,
|
|
5,
|
|
000008000000000000000000300000000000400000000000,
|
|
600000000000000000000000000000000000000008000000,
|
|
,
|
|
0110,
|
|
0110,
|
|
0110,
|
|
00303009,
|
|
000000000000000000000000000000000000000000000008,
|
|
|
|
#GOGOEND
|
|
|
|
|
|
#END
|
|
|