Files
2023-06-15 19:15:39 -05:00

549 lines
12 KiB
Plaintext
Raw Permalink Blame History

This file contains ambiguous Unicode characters
This file contains Unicode characters that might be confused with other characters. If you think that this is intentional, you can safely ignore this warning. Use the Escape button to reveal them.
//TJADB Project
TITLE:Love Shack
TITLEJA:Love Shack
SUBTITLE:--The B-52’s
BPM:133.306
WAVE:Love Shack.ogg
OFFSET:-5.644
DEMOSTART:8.530
COURSE:Oni
LEVEL:7
#START
100000000000200000000000100000100000200000000000,
100000000000200000100000000000200000200000000000,
100000000000200000000000100000100000200000000000,
100000000000200000000000000000200000200000000000,
100000000000200000000000100000100000200000000000,
500000000000000000000000000000000008000000300000,
100000000000200000100000100000100100200000100100,
100000000000200000100000100100100000200000100100,
100000000000200000100000100100100000200000100100,
100000000000200000100000100100100100200000200000,
100000000000200000100000100100100000200000100100,
100000000000200000100000100100100000200000100100,
100000000000200000100000100100100000200000100100,
100000000000200000100000100200200200200000200000,
100000100000200000100100100000100100100000000000,
100000100000200000100100100000100100100000000000,
100000100000200000100100100000100100200000100100,
100100100100200000100100200100100100200000100100,
100000100000200000100100100000100000100100100000,
100000000000200000100100000100200000200000000000,
100000100000200000100100100000100000100100100000,
100000000000200000100100000100200000200000000000,
100000100000200000100100100000100000100100100000,
100000000000200000100100000100200000200000000000,
100100100000200000100100100000200000100000000000,
100000000000100000000000100000100000000000000000,
100200000200100000200000100200000200100100200000,
100200000200100000200000100200200200100000200000,
100200000200100000200000100200000200100100200000,
100100100000100100100000100100100000100000000000,
100000000000200000100000100100200000200100100000,
100000000000200000100000100100200000200100100000,
100000000000200000100000100100200000200100100000,
100000000000200000000000200000200000200000000000,
300000000000400000000000000000100000100000100000,
000000000000400000000000200000200000200000000000,
300000000000400000000000000000100000100000100000,
000000000000400000000000200000200000200000000000,
300000000000400000000000000000100000100000100000,
000000000000400000000000200000200200200000000000,
300000000000400000000000000000100000100000100000,
000000000000400000000000300000000000000000000000,
#END
COURSE:Hard
LEVEL:3
STYLE:Double
SCOREINIT:1120
#START P1
10201120,
10210220,
10112000,
11200220,
11,
500000000000000008000000100000000000200000300000,
0222,
11101110,
10101120,
0222,
10201110,
11010220,
10201110,
11010220,
1011100010111000,
10111011,
10001100,
0202,
11020220,
10201110,
11020220,
10201110,
11020220,
10201110,
0202,
1110001110000000,
1011101000000000,
500000000000000008000000000000200000200000000000,
1011101010001000,
02021010,
10201120,
11010220,
10201120,
11020220,
30400003,
0400,
30400110,
00402220,
30400003,
0400,
30400110,
0430,
#END
#START P2
10112000,
11200220,
10201120,
10210220,
0202,
100000000000200000500000000000000008000000300000,
00101120,
0222,
0222,
11101110,
11010220,
10201110,
11010220,
10210220,
10111011,
1011100010111000,
0202,
10001100,
10201110,
11020220,
10201110,
11020220,
10201110,
11020220,
1110001110000000,
0202,
500000000000000008000000000000200000200000000000,
1011101000000000,
500000000000000008000000000000200000000000200000,
10100202,
11010220,
10201120,
11020220,
10201120,
30400110,
00402220,
30400003,
0400,
30400110,
00402220,
30400003,
0430,
#END
STYLE:Single
SCOREINIT:960
SCOREDIFF:250
#START
100000000000200000000000100000100000200000000000,
100000000000200000100000000000200000200000000000,
100000000000200000000000100000100000200000000000,
100000000000200000000000000000200000200000000000,
100000000000200000000000100000100000200000000000,
500000000000000000000000000000000800000000300000,
000000000000200000000000100000100000200000000000,
100000000000200000000000100000000000200000000000,
100000000000200000000000100000100000200000000000,
100000000000200000000000100000000000200000000000,
100000000000200000000000100000100000100000000000,
100000000000200000100000000000200000200000000000,
100000000000200000000000100000100000100000000000,
100000000000200000100000000000200000200000000000,
100000100000100000000000100000100100100000000000,
100000100000100000000000100000100100100000000000,
000000000000200000000000100000000000200000000000,
000000000000200000000000100000000000200000000000,
100000000000200000000000100000100000100000000000,
100000000000200000100000000000200000200000000000,
100000000000200000000000100000100000100000000000,
100000000000200000100000000000200000200000000000,
100000000000200000000000100000100000100000000000,
100000000000200000100000000000200000200000000000,
100100100000000000100100100000000000100000000000,
100100100000100000000000100100100000100000000000,
100000100100100000100000000000200000200000000000,
100000100100100000100000000000200000200000000000,
100000100100100000100000000000200000000000200000,
000000100000000000100000000000200000200000000000,
100000000000200000000000100000100000200000000000,
100000000000200000100000000000200000200000000000,
100000000000200000000000100000100000200000000000,
100000000000200000100000000000200000200000000000,
300000000000400000000000000000100000100000100000,
000000000000400000000000200000200000200000000000,
300000000000400000000000000000100000100000100000,
000000000000400000000000200000200000200000000000,
300000000000400000000000000000100000100000100000,
000000000000400000000000200000200200200000000000,
300000000000400000000000000000100000100000100000,
000000000000400000000000300000000000000000000000,
#END
COURSE:Normal
LEVEL:3
STYLE:Double
SCOREINIT:1440
#START P1
10200120,
10200220,
10012020,
10012020,
11,
500000000000000008000000000000000000100000000000,
30011010,
10011010,
0202,
0202,
10001100,
10001100,
0202,
0202,
11100020,
11100020,
00201110,
00201110,
10011000,
10011000,
00200220,
00200220,
11101110,
00222000,
0202,
11001100,
10110000,
500000000000000008000000000000200000200000000000,
10110010,
02020010,
11001100,
0202,
11001100,
00220020,
30400101,
0400,
3400,
0422,
30400101,
0400,
3400,
0430,
#END
#START P2
10012020,
10012020,
10200120,
10200220,
0202,
100000000000000000500000000000000008000000000000,
3202,
0202,
10011010,
10011010,
0202,
0202,
10001100,
10001100,
00201110,
00201110,
11100020,
11100020,
00200220,
00200220,
10011000,
10011000,
00222000,
11101110,
11001100,
0202,
500000000000000008000000000000200000200000000000,
10110000,
500000000000000008000000000000200000000000200000,
00100202,
0202,
11001100,
00220020,
11001100,
3400,
0422,
30400101,
0400,
3400,
0422,
30400101,
0430,
#END
STYLE:Single
SCOREINIT:1190
SCOREDIFF:360
#START
100000000000200000000000100000000000200000000000,
100000000000200000000000000000200000200000000000,
100000000000200000000000100000000000200000000000,
100000000000200000000000000000200000200000000000,
100000000000200000000000100000000000200000000000,
500000000000000000000000800000000000000000300000,
000000000000100000000000100000100000100000000000,
100000000000200000000000100000000000000000000000,
100000000000100000000000100000100000100000000000,
100000000000200000000000100000000000000000000000,
100000000000200000000000100000000000200000000000,
100000000000200000000000000000200000200000000000,
100000000000200000000000100000000000200000000000,
100000000000200000000000000000200000200000000000,
100000000000100000000000100000100000100000000000,
100000000000000000000000100000000000000000000000,
100000000000100000000000100000100000100000000000,
100000000000000000000000100000000000000000000000,
100000000000200000000000100000000000200000000000,
100000000000200000000000000000200000200000000000,
100000000000200000000000100000000000200000000000,
100000000000200000000000000000200000200000000000,
100000000000200000000000100000000000200000000000,
100000000000200000000000000000200000200000000000,
100000000000000000000000100000100000100000000000,
100000000000000000000000100000100000100000000000,
100000000000000000100000000000200000200000000000,
100000000000100000100000000000000000000000000000,
100000000000000000100000000000200000200000000000,
100000000000100000100000000000000000000000000000,
100000000000200000000000100000000000200000000000,
100000000000200000000000000000200000200000000000,
100000000000200000000000100000000000200000000000,
100000000000200000000000000000200000200000000000,
300000000000400000000000000000000000100000000000,
100000000000300000000000000000200000200000000000,
300000000000400000000000000000000000100000000000,
100000000000300000000000000000200000200000000000,
300000000000400000000000000000000000100000000000,
100000000000300000000000000000200000200000000000,
300000000000400000000000000000000000100000000000,
100000000000300000000000300000000000000000000000,
#END
COURSE:Easy
LEVEL:3
STYLE:Double
SCOREINIT:1600
#START P1
11,
10000220,
0202,
00200220,
11,
500000000000000000000000000008000000000000000000,
31,
11,
1,
0202,
1210,
1210,
1210,
1210,
1011,
1011,
0202,
0202,
00000220,
00000220,
00000220,
00000220,
0202,
0202,
1100,
2200,
1111,
500000000000000000000008000000000000000000000000,
1111,
500000000000000000000008000000000000000000000000,
1110,
1110,
0202,
0200,
3300,
,
3300,
,
4400,
,
3300,
3300,
#END
#START P2
0202,
00200220,
11,
10000220,
0202,
500000000000000000000000000008000000000000000000,
31,
0202,
01,
11,
00000220,
00000220,
00000220,
00000220,
0202,
0202,
1011,
1011,
1210,
1210,
1210,
1210,
11,
11,
0011,
0022,
500000000000000000000008000000000000000000000000,
1111,
500000000000000000000008000000000000000000000000,
1111,
0202,
0200,
1110,
1110,
,
3300,
,
3300,
,
4400,
3300,
3300,
#END
STYLE:Single
SCOREINIT:1160
SCOREDIFF:430
#START
100000000000000000000000100000000000000000000000,
100000000000100000000000000000200000200000000000,
100000000000000000000000100000000000000000000000,
100000000000100000000000000000200000200000000000,
100000000000000000000000100000000000000000000000,
500000000000000000000000000000800000000000000000,
300000000000000000000000100000000000200000000000,
100000000000200000000000100000000000000000000000,
100000000000000000000000100000000000200000000000,
100000000000200000000000100000000000000000000000,
100000000000200000000000100000000000200000000000,
100000000000000000000000000000200000200000000000,
100000000000200000000000100000000000200000000000,
100000000000000000000000000000200000200000000000,
500000000000000000000000000000800000000000000000,
500000000000000000000000000000800000000000000000,
000000000000200000000000000000000000200000000000,
000000000000200000000000000000000000200000000000,
100000000000200000000000100000000000200000000000,
100000000000000000000000000000200000200000000000,
100000000000200000000000100000000000200000000000,
100000000000000000000000000000200000200000000000,
100000000000200000000000100000000000200000000000,
100000000000000000000000000000200000200000000000,
300000000000000000000000300000000000000000000000,
300000000000000000000000300000000000000000000000,
100000000000100000000000000000200000200000000000,
100000000000100000000000100000000000000000000000,
100000000000100000000000000000200000200000000000,
100000000000100000000000100000000000000000000000,
100000000000200000000000100000000000200000000000,
100000000000000000000000000000200000200000000000,
100000000000200000000000100000000000200000000000,
100000000000000000000000000000000000000000000000,
300000000000400000000000000000000000100000000000,
100000000000100000000000000000000000000000000000,
300000000000400000000000000000000000100000000000,
100000000000100000000000000000000000000000000000,
300000000000400000000000000000000000100000000000,
100000000000100000000000000000000000000000000000,
300000000000400000000000000000000000100000000000,
100000000000300000000000300000000000000000000000,
#END