forked from ESE/ESE
256 lines
9.1 KiB
Plaintext
256 lines
9.1 KiB
Plaintext
//TJADB Project
|
|
TITLE:Love Story wa Totsuzen ni
|
|
TITLEJA:ラブ・ストーリーは突然に
|
|
SUBTITLE:--Kazumasa Oda/Tokyo Love Story
|
|
BPM:113
|
|
WAVE:Love Story wa Totsuzen ni.ogg
|
|
OFFSET:-2.510
|
|
DEMOSTART:74.711
|
|
|
|
COURSE:Oni
|
|
LEVEL:5
|
|
SCOREINIT:730
|
|
SCOREDIFF:200
|
|
|
|
|
|
#START
|
|
|
|
|
|
100000100000200000100000000000100000200000100100,
|
|
100000100000200000100000000000100000200000100100,
|
|
100000100000200000100000200100100000200000000000,
|
|
100000100000200000100000200100100000200000000000,
|
|
100000100000200000100000000000100000200000100100,
|
|
100000100000200000100000000000100000200000100100,
|
|
100000100000200000100000200100100000200000000000,
|
|
100000100000200000100000200100100000200000000000,
|
|
|
|
#GOGOSTART
|
|
100000000100000000200000100000200100100000200000,
|
|
100000000100000000200000100100000200100100100000,
|
|
100000000100000000200000100000200100100000200000,
|
|
100000000100000000200000100100000200100100100000,
|
|
100000100100200000100000000000100000200000100000,
|
|
100000100100200000100000000000100000200000100000,
|
|
100000200100100000200000000000200000100000200000,
|
|
100000200100100000200000000000200000100000200000,
|
|
|
|
#GOGOEND
|
|
100000200000200000200000200000200100100000200000,
|
|
100000200000200000200000200000200100100000000000,
|
|
100000100000200000100100100000100000200000100000,
|
|
100000200000000000200000100100100000200000100000,
|
|
100000100000200000100100100000100000200000100000,
|
|
100000200000000000200000100100100000200000100000,
|
|
100000100000200000100100100000200000000000200000,
|
|
100000100000200000100100100000200000000000200000,
|
|
100000200000100100100000100000200000000000100100,
|
|
100000100000200000100100100000100000200000000000,
|
|
100000100000200000100200100000100000200000100100,
|
|
100000200000000000200000100100100000200000100000,
|
|
100000100000200000100200100000100000200000100100,
|
|
100000200000000000200000100100100000200000100000,
|
|
000000100000200000100000100100100000200000100000,
|
|
000000100000200000100000000000100100100000200000,
|
|
100000000000200000100000000000100100100000200000,
|
|
100000000000200000100000000000100100200000100000,
|
|
|
|
#GOGOSTART
|
|
100000000100000000200000100000200100100000200000,
|
|
100000000100000000200000100100000200100100100000,
|
|
100000000100000000200000100000200100100000200000,
|
|
100000000100000000200000100100000200100100200000,
|
|
100000100100200000100000000000100000200000100100,
|
|
100000100100200000100000000000100000200000100100,
|
|
100000200100100000200000000000200100100000200000,
|
|
100000000000000000000000000000000000300000300000,
|
|
|
|
#GOGOEND
|
|
|
|
|
|
#END
|
|
|
|
|
|
COURSE:Hard
|
|
LEVEL:5
|
|
BALLOON:10,10,10,10,10,10
|
|
SCOREINIT:1160
|
|
SCOREDIFF:310
|
|
|
|
|
|
#START
|
|
|
|
100000000000200000000000100000100000200000000000,
|
|
100000000000200000000000100000100000200000000000,
|
|
700000000000000000000000000000000800000000000000,
|
|
700000000000000000000000000000000800000000000000,
|
|
100000000000200000000000100000100000200000000000,
|
|
100000000000200000000000100000100000200000000000,
|
|
700000000000000000000000000000000800000000000000,
|
|
700000000000000000000000000000000800000000000000,
|
|
#GOGOSTART
|
|
100000000100000000100000200000000000200000000000,
|
|
100000000100000000100000200000000000200000000000,
|
|
200000000200000000200000100000000000100000000000,
|
|
200000000200000000200000100000000000100000000000,
|
|
100000000000200000000000000000100000200000000000,
|
|
100000000000200000000000000000100000200000000000,
|
|
100000000000200000000000100000100000200000000000,
|
|
100000000000200000000000100000100000200000000000,
|
|
#GOGOEND
|
|
700000000000000000000000000000000800000000000000,
|
|
700000000000000000000000000000000800000000000000,
|
|
100000100000200000000000100000000000200000100000,
|
|
100000200000000000200000100000100000200000000000,
|
|
100000100000200000000000100000000000200000100000,
|
|
100000200000000000200000100000100000200000000000,
|
|
100000100000200000000000100000100000000000000000,
|
|
100000100000200000000000100000100000000000000000,
|
|
100000100000200000000000100000100000000000200000,
|
|
100000100000000000200000100000100000200000000000,
|
|
100000100000200000000000100000000000200000100000,
|
|
100000200000000000200000100000100000200000000000,
|
|
100000100000200000000000100000000000200000100000,
|
|
100000200000000000200000100000100000200000000000,
|
|
100000100000200000000000100000100000000000000000,
|
|
100000100000200000000000100000100000000000100000,
|
|
100000000000200000100000000000100000100000000000,
|
|
100000000000200000100000000000100000100000000000,
|
|
#GOGOSTART
|
|
100000000100000000100000200000000200000000200000,
|
|
100000000100000000100000200000000200000000200000,
|
|
100000000100000000100000200000000200000000200000,
|
|
100000000100000000100000100000000000200000000000,
|
|
100000100000200000000000000000100000200000000000,
|
|
100000100000200000100000000000000000200000000000,
|
|
100000000000200000000000100000100000200000000000,
|
|
100000000000000000000000000000000000300000300000,
|
|
|
|
#GOGOEND
|
|
|
|
|
|
#END
|
|
|
|
|
|
COURSE:Normal
|
|
LEVEL:4
|
|
BALLOON:6,6,9,6,6
|
|
SCOREINIT:1510
|
|
SCOREDIFF:560
|
|
|
|
|
|
#START
|
|
|
|
|
|
100000000000100000000000100000000000000000000000,
|
|
100000000000100000000000100000000000000000000000,
|
|
700000000000000000000000000000000080000000000000,
|
|
700000000000000000000000000000000080000000000000,
|
|
100000000000100000000000100000000000000000000000,
|
|
100000000000100000000000100000000000000000000000,
|
|
700000000000000000000000000000000080000000000000,
|
|
000000000000000000000000000000000000000000000000,
|
|
#GOGOSTART
|
|
100000000000100000100000100000000000000000000000,
|
|
100000000000100000100000100000000000000000000000,
|
|
100000000000100000000000100000000000000000000000,
|
|
100000000000100000000000100000000000000000000000,
|
|
200000000000200000000000200000000000000000000000,
|
|
200000000000200000000000200000000000000000000000,
|
|
100000000000100000000000200000000000000000000000,
|
|
100000000000100000000000200000000000000000000000,
|
|
#GOGOEND
|
|
700000000000000000000000000000000080000000000000,
|
|
700000000000000000000000000000000080000000000000,
|
|
100000000000100000000000100000000000000000000000,
|
|
100000000000000000000000100000000000000000000000,
|
|
100000000000100000000000100000000000000000000000,
|
|
100000000000000000000000100000000000000000000000,
|
|
100000000000100000000000200000000000000000000000,
|
|
100000000000100000000000200000000000000000000000,
|
|
100000000000100000000000100000000000000000000000,
|
|
100000000000100000000000100000000000000000000000,
|
|
200000000000200000000000200000000000000000000000,
|
|
200000000000000000000000200000000000000000000000,
|
|
200000000000200000000000200000000000000000000000,
|
|
200000000000000000000000200000000000000000000000,
|
|
200000000000100000000000100000000000000000000000,
|
|
200000000000100000000000100000000000000000000000,
|
|
100000000000100000000000000000000000000000000000,
|
|
200000000000200000000000000000000000000000000000,
|
|
#GOGOSTART
|
|
100000000000100000100000100000000000000000000000,
|
|
100000000000100000100000100000000000000000000000,
|
|
100000000000100000000000100000000000000000000000,
|
|
100000000000100000000000100000000000000000000000,
|
|
200000000000200000000000200000000000000000000000,
|
|
200000000000200000000000200000000000000000000000,
|
|
100000000000100000000000000000000000100000000000,
|
|
100000000000000000000000000000000000300000300000,
|
|
#GOGOEND
|
|
|
|
|
|
#END
|
|
|
|
|
|
COURSE:Easy
|
|
LEVEL:3
|
|
BALLOON:5,5,8,5,5
|
|
SCOREINIT:1220
|
|
SCOREDIFF:600
|
|
|
|
|
|
#START
|
|
|
|
|
|
100000000000000000000000100000000000000000000000,
|
|
100000000000000000000000000000000000000000000000,
|
|
700000000000000000000000800000000000000000000000,
|
|
700000000000000000000000800000000000000000000000,
|
|
100000000000000000000000100000000000000000000000,
|
|
100000000000000000000000000000000000000000000000,
|
|
9,
|
|
8,
|
|
#GOGOSTART
|
|
100000000000100000000000100000000000000000000000,
|
|
100000000000100000000000100000000000000000000000,
|
|
100000000000000000000000100000000000000000000000,
|
|
100000000000100000000000100000000000000000000000,
|
|
100000000000000000000000200000000000000000000000,
|
|
100000000000000000000000200000000000000000000000,
|
|
300000000000000000000000000000000000000000000000,
|
|
300000000000000000000000000000000000000000000000,
|
|
#GOGOEND
|
|
700000000000000000000000800000000000000000000000,
|
|
700000000000000000000000800000000000000000000000,
|
|
100000000000000000000000100000000000000000000000,
|
|
100000000000000000000000100000000000100000000000,
|
|
100000000000000000000000100000000000000000000000,
|
|
100000000000000000000000100000000000100000000000,
|
|
300000000000000000000000000000000000000000000000,
|
|
300000000000000000000000000000000000000000000000,
|
|
100000000000000000000000200000000000000000000000,
|
|
100000000000000000000000200000000000000000000000,
|
|
100000000000000000000000100000000000000000000000,
|
|
100000000000000000000000100000000000100000000000,
|
|
100000000000000000000000100000000000000000000000,
|
|
100000000000000000000000100000000000100000000000,
|
|
300000000000000000000000000000000000000000000000,
|
|
300000000000000000000000000000000000000000000000,
|
|
100000000000000000000000200000000000000000000000,
|
|
100000000000000000000000200000000000000000000000,
|
|
#GOGOSTART
|
|
100000000000100000000000100000000000000000000000,
|
|
100000000000100000000000100000000000000000000000,
|
|
100000000000000000000000100000000000000000000000,
|
|
100000000000100000000000100000000000000000000000,
|
|
100000000000000000000000200000000000000000000000,
|
|
100000000000000000000000200000000000000000000000,
|
|
100000000000100000000000100000000000000000000000,
|
|
100000000000000000000000000000000000300000300000,
|
|
#GOGOEND
|
|
|
|
|
|
#END
|
|
|