forked from ESE/ESE
171 lines
2.3 KiB
Plaintext
171 lines
2.3 KiB
Plaintext
//TJADB Project
|
|
TITLE:Machigai Sagashi
|
|
TITLEJA:まちがいさがし
|
|
SUBTITLE:--Masaki Suda & Kenshi Yonezu
|
|
SUBTITLEJA:菅田将暉
|
|
BPM:78
|
|
WAVE:Machigai Sagashi.ogg
|
|
OFFSET:-3.134
|
|
DEMOSTART:39.031
|
|
|
|
COURSE:Oni
|
|
LEVEL:8
|
|
BALLOON:14
|
|
SCOREINIT:5260
|
|
SCOREDIFF:0
|
|
|
|
|
|
#START
|
|
|
|
|
|
1122,
|
|
1000100020022012,
|
|
1001201120012011,
|
|
7082,
|
|
1000100020022022,
|
|
1001201120001020,
|
|
1022100120002022,
|
|
1000222010012012,
|
|
|
|
500000000000000008000000100000000200200000200200,
|
|
1010202210012011,
|
|
500000000000000008000000100000000100100000100100,
|
|
1022211010000000,
|
|
|
|
|
|
#GOGOSTART
|
|
300000000100200200100100100000200100200000100111,
|
|
100000200222200000100111100000200000100100200000,
|
|
300000000100100200200100100000200100200000100111,
|
|
100000200222200000200000100000200100100100200000,
|
|
300000000100200200100100100000200100200000100111,
|
|
100000200222200000100111100000100000100000200200,
|
|
1010201110102022,
|
|
1010201110102210,
|
|
300000000000300000000600000000000000008000000000,
|
|
|
|
#GOGOEND
|
|
|
|
|
|
#END
|
|
|
|
|
|
COURSE:Hard
|
|
LEVEL:4
|
|
BALLOON:8
|
|
SCOREINIT:8590
|
|
SCOREDIFF:0
|
|
|
|
|
|
#START
|
|
|
|
|
|
1122,
|
|
10102022,
|
|
10112022,
|
|
78,
|
|
10102021,
|
|
10221020,
|
|
1220,
|
|
1000222010000000,
|
|
500000000000000008000000100000000000000000000000,
|
|
1000202220002000,
|
|
500000000000000008000000100000000000200000000000,
|
|
1020222010000000,//12
|
|
|
|
#GOGOSTART
|
|
3000201110102000,
|
|
1000201110201020,
|
|
3000201110102000,
|
|
1022202010201110,
|
|
3000201110102000,
|
|
1000201110202220,
|
|
1010201110102000,
|
|
1010201110102220,
|
|
300000000000300000000600000000000000008000000000,//21
|
|
|
|
#GOGOEND
|
|
|
|
|
|
#END
|
|
|
|
|
|
COURSE:Normal
|
|
LEVEL:2
|
|
BALLOON:8
|
|
SCOREINIT:17800
|
|
SCOREDIFF:0
|
|
|
|
|
|
#START
|
|
|
|
|
|
1110,
|
|
1120,
|
|
1110,
|
|
78,
|
|
1110,
|
|
1220,
|
|
1110,
|
|
1210,
|
|
500000000000000008000000000000000000000000000000,
|
|
22,
|
|
500000000000000008000000000000000000000000000000,
|
|
1110,//12
|
|
|
|
#GOGOSTART
|
|
30111010,
|
|
1110,
|
|
30111010,
|
|
1220,
|
|
30111010,
|
|
1110,
|
|
12,
|
|
11,
|
|
300000000000300000000600000000000000008000000000,//21
|
|
|
|
#GOGOEND
|
|
|
|
|
|
#END
|
|
|
|
|
|
COURSE:Easy
|
|
LEVEL:1
|
|
SCOREINIT:23760
|
|
SCOREDIFF:0
|
|
|
|
|
|
#START
|
|
|
|
|
|
11,
|
|
1110,
|
|
11,
|
|
1,
|
|
12,
|
|
1110,
|
|
11,
|
|
1,
|
|
500000000000000008000000000000000000000000000000,
|
|
12,
|
|
500000000000000008000000000000000000000000000000,
|
|
1110,//12
|
|
|
|
#GOGOSTART
|
|
31,
|
|
1110,
|
|
32,
|
|
1110,
|
|
31,
|
|
1110,
|
|
12,
|
|
11,
|
|
300000000000300000000600000000000000008000000000,//21
|
|
|
|
#GOGOEND
|
|
|
|
|
|
#END
|
|
|