Files
2023-06-15 19:00:23 -05:00

345 lines
4.1 KiB
Plaintext

//TJADB Project
TITLE:Mani Mani
TITLEJA:Mani Mani(Prod. TAKU INOUE)
SUBTITLE:--Taku Inoue feat. Miho Amane/DEN-ON-BU
BPM:134
WAVE:Mani Mani.ogg
OFFSET:-2.667
DEMOSTART:70.250
COURSE:Oni
LEVEL:8
BALLOON:15,18,35,60
SCOREINIT:700
SCOREDIFF:173
#START
12,
12,
1000000020000005,
000000000000000000080000,
3332,
1100120110201202,
1010120112012020,
1100120110101202,
1020120112021110,
1100120110201202,
1010120112012020,
1100120110101202,
1210110270000000,
08,
1000200100102001,
0020210220011002,
2001100220101002,
1020120212020220,
1000200100102001,
0020120110022001,
1002200110201002,
1020120212020220,
1000221100102211,
0010221100102020,
1000222100102221,
0010222100102010,
1000201100102011,
0010201100102022,
1002100210002002,
1001200120012000,
500000000000000000000000000000000000000000000008,
,
500000000000000000000000000008000000000000200000,
10121012,
500000000000000000000000000008000000000000200000,
10121010,
7,
0804,
#GOGOSTART
1020102100221021,
1020102100221020,
1020102100102001,
0022101120221010,
1020102100221021,
1020102100221020,
1020102100102001,
0022102210102220,
1020102100221021,
1020102100221020,
1020102100102001,
0022101120221010,
1020102100221021,
0020102100221021,
1020100010002001,
0022102210107000,
,
,
8000000000004004,
0022202220202020,
#GOGOEND
1100120110201202,
1020120112012020,
1100120110101202,
1020120112021210,
1100120110201202,
1020120112012020,
1100120110102001,
0022102110102070,
,
,
000000000000000000000000000000000000000000000008,
#END
COURSE:Hard
LEVEL:6
BALLOON:12,14,20,44
SCOREINIT:730
SCOREDIFF:193
#START
1,
12,
1000000000000005,
000000000000000000080000,
3330,
1000200110102001,
1010200110002020,
1000200110102001,
1010200210021020,
1000200110102001,
1010200110002020,
1000200110102001,
11207000,
08,
1212,
12202010,
10102120,
2220200200202000,
1212,
12202010,
20201210,
2220200200202000,
1000201100102000,
1010201100102020,
1000201100102000,
1010201100102000,
1000201100102000,
1010201100102000,
2002200220002000,
1001100110011000,
500000000000000000000000000000000000000000000008,
0,
500000000000000000000000000008000000000000200000,
20022002,
500000000000000000000000000008000000000000200000,
20022020,
7,
0804,
#GOGOSTART
1020100100201001,
0020100100201010,
1020101100201000,
12121122,
1020100100201001,
0020100100201010,
1020101100201000,
12121122,
1020100100201001,
0020100100201010,
1020101100201000,
12121122,
1020100100201001,
0020100100201010,
12200010,
12121190,
0,
08,
0004,
4444,
#GOGOEND
1000200110102001,
1010200110002020,
1000200110102001,
1010200210021020,
1000200110102001,
1010200110002020,
1000200110102000,
10127000,
0,
0,
0,
8,
,
#END
COURSE:1
LEVEL:4
BALLOON:9,10,15,33
SCOREINIT:930
SCOREDIFF:300
#START
1,
22,
1000000000000005,
000000000000000000080000,
3330,
11,
1022,
11,
1022,
11,
1022,
11,
17,
08,
12,
12,
1022,
1011,
12,
12,
1022,
1011,
1212,
10201110,
1212,
10202220,
1212,
10201110,
1122,
1122,
500000000000000000000000000000000000000000000008,
0,
500000000000000000000000000008000000000000000000,
22,
500000000000000000000000000008000000000000000000,
22,
7,
0804,
#GOGOSTART
1212,
1211,
1012,
10102220,
1212,
1211,
1012,
10101110,
1212,
1211,
1012,
10102220,
1212,
1215,
000000000000000000000008000000000000100000000000,
1119,
0,
08,
0004,
4444,
#GOGOEND
1210,
1122,
1210,
10102220,
1210,
1122,
1210,
1170,
0,
0,
0,
8,
,
#END
COURSE:0
LEVEL:2
BALLOON:7,9,12,24
SCOREINIT:780
SCOREDIFF:340
#START
1,
0,
1000000000000005,
000000000000080000000000,
3330,
1,
1011,
1,
1011,
1,
1011,
1,
17,
08,
1,
1,
1,
11,
2,
2,
2,
11,
11,
1011,
11,
1022,
11,
1011,
12,
11,
500000000000000000000000000000000000000000000008,
0,
500000000000000000000000000008000000000000000000,
22,
500000000000000000000000000008000000000000000000,
22,
7,
0800,
#GOGOSTART
11,
1011,
11,
2222,
11,
1011,
11,
3333,
11,
1011,
11,
2222,
11,
1011,
1,
1119,
0,
08,
0,
4444,
#GOGOEND
11,
1011,
11,
1011,
11,
2011,
11,
27,
0,
0,
0,
8,
,
#END