Files
2023-06-15 19:15:39 -05:00

236 lines
8.0 KiB
Plaintext

//TJADB Project
TITLE:Mata Ai Mashou
TITLEJA:マタアイマショウ
SUBTITLE:--SEAMO/Beat Takeshi no TV Tackle
BPM:100
WAVE:Mata Ai Mashou.ogg
OFFSET:-10.307
DEMOSTART:79.307
COURSE:Oni
LEVEL:6
SCOREINIT:730
SCOREDIFF:200
#START
100000000000100000200000000000100000200000200000,
100000000100000000200000000000000000200000200000,
100000000100000000200000000000100000200000200000,
100000100000200000200000000000000000400000000000,
#GOGOSTART
100000100100200000100000200200100000200000100000,
100000100200200000100200000200100000200000200000,
100000100100200000100000200200100000200000100000,
100000100200200000100200000200100000100100200200,
100000100100200000100000200200100000200000100000,
100000100200200000100200000200100000200000200000,
100000100100200000100000200200100000100100200200,
100100200000100200000000100100200000100200000000,
#GOGOEND
100000100100200000100000000000100000200200200000,
100000100100200000100000000000100000200200100000,
100000100100200000100000000000100000200200200000,
100000100100200000100000000000100000200200100000,
100000100100200000100000200000100000200200200000,
100000100100200000100000200000100000200200100000,
100000100100200000100000200000100000200200200000,
100000100100200000100000200000100000200200100000,
100010001000200020002000100000100100200100200000,
100200100100200100000100200200100000200100000000,
100200100100200100000200100100000100000100200100,
100000100100200200100200100100200200000000000000,
200100100100200000200200100200100100000000000000,
100100200100000200100000100000100200000000000000,
100000100100200000200100200200100100200100100100,
200000100000100100200200100000100000200000000000,
000000000000000000000000000000000000400000000000,
#GOGOSTART
100000100100200000100000200200100000200000100000,
100000100200200000100200000200100000200000200000,
100000100100200000100000200200100000200000100000,
100000100200200000100200000200100000100100200200,
100000100100200000100000200200100000200000100000,
100000100200200000100200000200100000200000200000,
100000100100200000100000200200100000100100200200,
100100200000100200000000100100200000100200000000,
#GOGOEND
#END
COURSE:Hard
LEVEL:4
BALLOON:12
SCOREINIT:980
SCOREDIFF:270
#START
100000000000100000100000000000000000000000000000,
100000000200000000100000000000000000000000000000,
100000000000100000100000000000000000000000000000,
100000100000200000200000000000000000200000000000,
#GOGOSTART
100000100100000100100000000000100000100000000000,
100000100100000100100000000000000000000000000000,
100000100100000100100000000000100000100000000000,
100000100100000100100000000000000000100000100000,
100000100100100000100000000000100000100000000000,
100000100100100000100000000000200000200000200000,
100000100000200000100000200000000000000000000000,
100100100000100100000000100100100000100100000000,
#GOGOEND
100000000000200000100000000000100000100000000000,
100000000000200000100000000000100000200000000000,
100000000000200000100000000000100000100000000000,
100000200000100000200000100000100000200000000000,
100000000000200000100000000000100000100000000000,
100000000000200000100000000000100000200000000000,
100000000000200000100000000000100000100000000000,
100000100000000000100000000000100000200000000000,
100000000000100000000000100000100000200000000000,
100000000000200000000000100000100000200000000000,
100000000000100000000000100000100000200000000000,
100000000000200000000000100000100000200000000000,
100000100000200000100000200000100000200000000000,
100000100000200000200000100000100000200000000000,
100000100000200000100000200000100000200000100000,
700000000000000000000000000000000800000000000000,
000000000000000000000000000000000000200000000000,
#GOGOSTART
100000100100000100100000000000100000100000000000,
100000100100000100100000000000000000000000000000,
100000100100000100100000000000100000100000000000,
100000100100000100100000000000000000100000100000,
100000100100100000100000000000100000100000000000,
100000100100100000100000000000200000200000200000,
100000100000200000100000200000000000000000000000,
100100100000100100000000100100100000100100000000,
#GOGOEND
#END
COURSE:Normal
LEVEL:4
BALLOON:10,6
SCOREINIT:1440
SCOREDIFF:520
#START
100000000000000000100000000000000000000000000000,
100000000000000000200000000000000000000000000000,
100000000000000000100000000000000000000000000000,
200000200000200000200000000000000000000000000000,
#GOGOSTART
100000000000000000100000000000000000000000000000,
100000000100000000100000000000000000000000000000,
100000000000000000100000000000000000000000000000,
100000000100000000100000000000000000000000000000,
100000000000000000100000000000000000000000000000,
100000100000100000100000000000000000000000000000,
100000000000100000100000100000000000000000000000,
300000000000000000000000300000000000000000000000,
#GOGOEND
100000000000000000000000100000100000100000000000,
100000000000000000000000100000100000100000000000,
100000000000000000000000100000100000100000000000,
500000000000000000000000000000000800000000000000,
100000000000100000000000100000100000000000000000,
100000000000100000000000100000100000000000000000,
100000000000100000000000100000100000000000000000,
700000000000000000000000000000000800000000000000,
100000000000100000000000100000100000100000000000,
100000000000100000000000100000100000100000000000,
100000000000100000000000100000100000100000000000,
500000000000000000000000000000000800000000000000,
100000100000100000000000100000100000100000000000,
200000200000200000000000200000200000200000000000,
100000100000100000000000100000100000100000000000,
9008,
000000000000000000000000000000000000200000000000,
#GOGOSTART
100000000000000000100000000000000000000000000000,
100000000100000000100000000000000000000000000000,
100000000000000000100000000000000000000000000000,
100000000100000000100000000000000000000000000000,
100000000000000000100000000000000000000000000000,
100000100000100000100000000000000000000000000000,
100000000000100000100000200000000000000000000000,
300000000000000000000000300000000000000000000000,
#GOGOEND
#END
COURSE:Easy
LEVEL:3
BALLOON:7,5
SCOREINIT:1440
SCOREDIFF:790
#START
100000000000000000000000000000000000000000000000,
200000000000000000000000000000000000000000000000,
100000000000000000000000000000000000000000000000,
200000000000000000000000000000000000000000000000,
#GOGOSTART
100000000000100000000000100000000000000000000000,
500000000000000000000800000000000000000000000000,
100000000000100000000000100000000000000000000000,
500000000000000000000800000000000000000000000000,
100000000000000000000000200000000000000000000000,
100000000000000000000000200000000000000000000000,
100000000000100000000000200000000000000000000000,
300000000000000000000000300000000000000000000000,
#GOGOEND
100000000000000000000000100000000000000000000000,
100000000000000000000000200000000000000000000000,
100000000000000000000000100000000000000000000000,
500000000000000000000000000800000000000000000000,
300000000000000000000000100000000000100000000000,
100000000000000000000000100000000000100000000000,
100000000000000000000000100000000000000000000000,
700000000000000000000000000000000800000000000000,
300000000000000000000000100000000000200000000000,
100000000000000000000000100000000000200000000000,
100000000000000000000000100000000000000000000000,
500000000000000000000000000800000000000000000000,
100000000000100000000000100000000000000000000000,
200000000000200000000000200000000000000000000000,
100000000000100000000000100000000000100000000000,
9008,
,
#GOGOSTART
100000000000100000000000100000000000000000000000,
500000000000000000000800000000000000000000000000,
100000000000100000000000100000000000000000000000,
500000000000000000000800000000000000000000000000,
100000000000000000000000200000000000000000000000,
100000000000000000000000200000000000000000000000,
100000000000100000000000200000000000000000000000,
300000000000000000000000300000000000000000000000,
#GOGOEND
#END