Files
2023-06-15 19:00:23 -05:00

277 lines
7.6 KiB
Plaintext

//TJADB Project
TITLE:Mata Kimi ni Koi Shiteru
TITLEJA:また君に恋してる
SUBTITLE:--Fuyumi Sakamoto/Iichiko Hita Zenkoji
BPM:93
WAVE:Mata Kimi ni Koi Shiteru.ogg
OFFSET:-2.799
DEMOSTART:58.592
COURSE:Oni
LEVEL:6
BALLOON:24,15,35
SCOREINIT:1210
SCOREDIFF:270
#START
500000000000000000000000000000000000000080000000,
#BPMCHANGE 92.56
000000000000200000000000200000000000000000200000,
#BPMCHANGE 93.14
500000000000000000000000000000000000000080000000,
000000000000200000200000200000000000000000200000,
#MEASURE 8/4
#BPMCHANGE 92.81
700000000000000000000000000000000000000000000000
#BPMCHANGE 93.36
#SCROLL 0.66
800000000000000000000000000000000000200000200000,
#MEASURE 4/4
#BPMCHANGE 93.39
100000000000200000200000100000000000000000200000,
#BPMCHANGE 92.61
100000000000100000200200100000000000000000000000,
#BPMCHANGE 93
100000000000200000200000100000000000200000200000,
#BPMCHANGE 93.53
500000000000000000000008000000000000200000200000,
#BPMCHANGE 93.33
100000100100200000200000100000000000200000200000,
#BPMCHANGE 92.91
100000000000100000200200100000000000200000200000,
#BPMCHANGE 92.49
100000100100200000200000100000000000200000200000,
#BPMCHANGE 92.75
700000000000000000000000800000000000200000200000,
#BPMCHANGE 93
100000200200200000200000100000000000200000200000,
100000000000100000200200100000000000200000200000,
100000100100200000200000100000100000200000200000,
500000000000000000000008000000000000200000200000,
100000200200200000200000100000000000200000200000,
100000000000100000200200100000000000200000200000,
100000100100200000200000100000200000100100200200,
100000200000100100200000500000000008000000000000,
100100100100200200200000100100100100200200200000,
100000000000200000200000100000100100200000200000,
100000000000200000200000100000200000100100200200,
100000000000200000200200100000100000200000200000,
100100100100200200200000100100100100200200200000,
100000000000200000200000100000100100200000200000,
100000000000200000200200100000200000100100200000,
500000000000000000000008000000000000000000000000,
#GOGOSTART
#SCROLL 1
300000100100200000200000100000200100200000200000,
300000000000400000400000300000000000200000200000,
100000100100200000200000100000200100200000200000,
500000000008000000200000100000200200100100200200,
100000100100200000200000100000200100200000200000,
300000300000400000400000300000000000400000000000,
100000000000200200200000100000000000200200200000,
700000000000000000000000000000000000000000000000,
000000000000000000000000000000000000800000000000,
#GOGOEND
#END
COURSE:Hard
LEVEL:4
BALLOON:20,11,20
SCOREINIT:1150
SCOREDIFF:300
#START
500000000000000000000000000000000000000800000000,
000000000000200000000000200000000000000000000000,
500000000000000000000000000000000000000800000000,
000000000000200000200000200000000000000000000000,
700000000000000000000000000000000000000000000800,
000000000000000000000000000000000000200000200000,
100000000000000000200000100000000000000000200000,
100000000000100000200000100000000000000000000000,
100000000000200000200000100000000000200000200000,
500000000000000000000800000000000000200000200000,
100000000000000000200000100000000000200000200000,
100000000000100000200000100000000000200000200000,
100000000000000000200000100000000000200000200000,
100000000000200000000000100000000000200000200000,
100000000000000000200000100000000000000000200000,
100000000000100000200000100000000000200000200000,
100000000000200000200000100000000000200000200000,
500000000000000000000800000000000000200000200000,
100000000000000000200000100000000000200000200000,
100000000000100000200000100000000000200000200000,
100000000000200000200000100000000000200000200000,
700000000000000000000000000000000800000000000000,
100100100000200000000000100100100000200000000000,
100000000000200000000000100000100000200000200000,
100000000000200000200000100000000000200000000000,
100000000000200000200000100000100000200000000000,
100100100000200000000000100100100000200000000000,
100000000000200000200000100000100000200000200000,
100000000000200000200000100000100000200000000000,
500000000000000000000800000000000000000000000000,
#GOGOSTART
300000000000200000000000100000200200200000200000,
300000000000400000400000300000000000200000200000,
100000000000200000200000100000200200200000200000,
100000000000200000200000100000200200200000200000,
300000000000200000000000100000200200200000200000,
300000000000400000400000300000000000400000000000,
100000000000200000200000100000000000200000000000,
700000000000000000000000000000000000000000000800,
#GOGOEND
#END
COURSE:Normal
LEVEL:3
BALLOON:5,15
SCOREINIT:1380
SCOREDIFF:440
#START
500000000000000000000000000000000000800000000000,
#BPMCHANGE 92.56
000000000000000000000000000000000000000000000000,
#BPMCHANGE 93.14
500000000000000000000000000000000000800000000000,
000000000000000000000000000000000000000000000000,
#BPMCHANGE 92.81
600000000000000000000000000000000000000000800000,
#barlineoff
#BPMCHANGE 93.36
000000000000000000000000000000000000000000000000,
#barlineon
#BPMCHANGE 93.39
100000000000100000000000100000000000000000000000,
#BPMCHANGE 92.61
100000000000100000100000100000000000000000000000,
#BPMCHANGE 93
100000000000100000000000100000000000000000000000,
#BPMCHANGE 93.53
500000000000000000800000000000000000000000000000,
#BPMCHANGE 93.33
100000000000100000000000100000000000000000000000,
#BPMCHANGE 92.91
100000000000100000100000100000000000000000000000,
#BPMCHANGE 92.49
100000000000100000000000100000000000000000000000,
#BPMCHANGE 92.75
100000000000000000000000000000000000000000000000,
#BPMCHANGE 93
100000000000000000100000100000000000000000000000,
100000000000100000100000100000000000000000000000,
100000000000000000100000100000000000200000000000,
500000000000000000800000000000000000000000000000,
100000000000000000100000100000000000000000000000,
100000000000100000100000100000000000000000000000,
100000000000000000100000100000000000200000000000,
700000000000000000800000000000000000000000000000,
100000100000100000000000200000200000200000000000,
100000000000100000000000100000000000000000000000,
100000100000100000000000200000200000200000000000,
100000000000100000000000100000000000000000000000,
100000100000100000000000200000200000200000000000,
100000000000100000000000200000000000000000000000,
100000100000100000000000200000200000200000000000,
300000000000000000000000000000000000000000000000,
#GOGOSTART
100000000000200000200000200000000000200000000000,
300000000000400000000000300000000000000000000000,
100000000000000000100000100000000000200000000000,
100000000000100000100000100000000000000000000000,
100000000000200000200000200000000000200000000000,
300000000000400000000000300000000000000000000000,
100000000000200000200000200000000000200000000000,
700000000000000000000000000000000000000000800000,
#GOGOEND
#END
COURSE:Easy
LEVEL:2
BALLOON:11
SCOREINIT:1380
SCOREDIFF:680
#START
500000000000000000000000000000000000000008000000,
#BPMCHANGE 92.56
,
#BPMCHANGE 93.14
500000000000000000000000000000000000000008000000,
,
#BPMCHANGE 92.81
600000000000000000000000000000000000000000000008,
#BPMCHANGE 93.36
,
#BPMCHANGE 93.39
11,
#BPMCHANGE 92.61
11,
#BPMCHANGE 93
1110,
#BPMCHANGE 93.53
1,
#BPMCHANGE 93.33
11,
#BPMCHANGE 92.91
11,
#BPMCHANGE 92.49
1110,
#BPMCHANGE 92.75
1,
#BPMCHANGE 93
12,
1110,
12,
1,
12,
1,
500000000000000000000000000000000000000000000008,
,
1110,
12,
12,
1110,
1110,
12,
1011,
500000000000000000000008000000000000000000000000,
#GOGOSTART
34,
3330,
11,
1110,
34,
3330,
12,
700000000000000000000000000000000000000000000008,
#END