Files
2023-06-15 19:15:39 -05:00

186 lines
2.3 KiB
Plaintext

//TJADB Project
TITLE:Mikazuki
TITLEJA:三日月
SUBTITLE:--Ayaka/Mirai Kansoku Tsunagaru TV@Human
BPM:72
WAVE:Mikazuki.ogg
OFFSET:-3.532
DEMOSTART:60.200
COURSE:Oni
LEVEL:5
BALLOON:12
SCOREINIT:1180
SCOREDIFF:383
#START
,
,
,
2000201020112000,
2020201120112220,
2000201020112000,
2020201020112010,
2000201020112000,
2020201120112220,
2000201020112000,
2020201020112000,
2211222122112221,
0110200020002000,
2211212122112022,
0110100000100100,
1000201020212020,
0020002000202020,
#GOGOSTART
1022102210221012,
1010021010221010,
500000000000000000000008000000200200200000100000,
2010021000222020,
1112102100212020,
1112102100200200,
1022102210221012,
1010021010221010,
7000000080222010,
2010021000222020,
1112102100404040,
1112102100002020,
0040000000000000,
#GOGOEND
#END
COURSE:Hard
LEVEL:4
SCOREINIT:1220
SCOREDIFF:450
#START
,
,
,
2000200020112000,
2000200020112000,
2000200020112000,
2000200020112000,
2000200020112000,
2000200020112000,
2000200020112000,
2000201020222000,
2022202220222022,
2010100010001000,
2022202220222022,
2010100000100100,
1000201020112000,
0020002000202020,
#GOGOSTART
1000100010222000,
1000100010222000,
5000000080002010,
2010002000111020,
1111100200111020,
1111100200000000,
1000100010222000,
1000100010222000,
5000000080002010,
2010002000111020,
1111100200111020,
1111100200003000,
3,
#GOGOEND
,
#END
COURSE:1
LEVEL:1
SCOREINIT:960
SCOREDIFF:490
#START
#SCROLL 1.39
,
,
,
2000200020112000,
2000200020112000,
2000200020112000,
2000200020112000,
2000200020112000,
2000200020112000,
2000200020112000,
2000201020222000,
2022202220222022,
2010100010001000,
2022202220222022,
2010100000100100,
1000201020112000,
0020002000202020,
#GOGOSTART
1000100010222000,
1000100010222000,
5000000080002010,
2010002000111020,
1111100200111020,
1111100200000000,
1000100010222000,
1000100010222000,
5000000080002010,
2010002000111020,
1111100200111020,
1111100200003000,
3,
#GOGOEND
,
#END
COURSE:0
LEVEL:3
SCOREINIT:1300
SCOREDIFF:1030
#START
#SCROLL 1.39
,
,
,
11,
11002000,
11,
11002000,
11,
11002000,
11,
11002020,
10101110,
12,
10101110,
12,
1111,
02020200,
#GOGOSTART
1111,
11020200,
5008,
10110010,
1102,
2220,
1111,
11020200,
5008,
10110010,
1102,
2220,
3,
#GOGOEND
,
#END