forked from ESE/ESE
615 lines
20 KiB
Plaintext
615 lines
20 KiB
Plaintext
//TJADB Project
|
|
TITLE:Minimoni. Telephone! Ring Ring Ring
|
|
TITLEJA:ミニモニ。テレフォン!リンリンリン
|
|
SUBTITLE:--Minimoni./Oha Suta
|
|
BPM:146
|
|
WAVE:Minimoni. Telephone! Ring Ring Ring.ogg
|
|
OFFSET:-9.659
|
|
DEMOSTART:57.333
|
|
|
|
COURSE:Oni
|
|
LEVEL:5
|
|
BALLOON:11
|
|
|
|
|
|
#START
|
|
|
|
|
|
100000001000100000001000100000001000100000001000,
|
|
100000000000100000000000100000000000000000000000,
|
|
100000000000200020002000100000000000200020002000,
|
|
100000001000100000001000100000000000300000000000,
|
|
100000001000100000002000100000001000100000002000,
|
|
100000000000100000000000100000000000400000000000,
|
|
100000001000100000002000100000001000100000002000,
|
|
100000000000100000000000100000000000400000000000,
|
|
100000001000100000001000100000000000400000000000,
|
|
200000002000200000002000200000000000300000000000,
|
|
100000001000100000001000100000000000400000000000,
|
|
200000002000200000002000200000000000300000000000,
|
|
100000000000200020002000100000000000200020002000,
|
|
100000000000200020002000100010001000100000000000,
|
|
100000001000100000001000100000000000400000000000,
|
|
200000002000200000002000200000000000300000000000,
|
|
100000001000100000002000100000001000100000002000,
|
|
100000000000100000000000100000000000400000000000,
|
|
100000001000100000002000100000001000100000002000,
|
|
100000000000100000000000100000000000400000000000,
|
|
100000001000100000001000100000002020200000002000,
|
|
200000002000200000002000200000001010100000001000,
|
|
100000001000100000001000100000002020200000002000,
|
|
200000002000200000002000200000001010100000001000,
|
|
100000002000100000002000100010001000200000000000,
|
|
100000002000100000002000100010001000200000000000,
|
|
100000000000100000000000200000000000200000000000,
|
|
500000000000000000000000000000000000000000000008,
|
|
,
|
|
100000000000200000002000100000000000200000000000,
|
|
100000000000200000002000100000000000200000000000,
|
|
100000000000200000000000100000000000200000000000,
|
|
100010001000100000000000200020002000200000000000,
|
|
100000002020200000002000100000002020200000002000,
|
|
100000001010100000001000100000001010100000001000,
|
|
100000000000100000000000100000000000100000000000,
|
|
100000000000100000001000000000000000300000000000,
|
|
200000000000200000002000000000000000400000000000,
|
|
100000000000200020002000100000000000200020002000,
|
|
100010001000200020002000100010001000200020002000,
|
|
100000001000100000002000100000001000100000002000,
|
|
100000000000100000000000100000000000400000000000,
|
|
100000001000100000002000100000001000100000002000,
|
|
100000000000100000000000100000000000400000000000,
|
|
200000002000200000002000200000000000300000000000,
|
|
100000001000100000001000100000000000400000000000,
|
|
200000002000200000002000200000000000300000000000,
|
|
100000001000100000001000100000000000400000000000,
|
|
100000000000200020002000100000000000200020002000,
|
|
100000000000200020002000100010001000100000000000,
|
|
200000002000200000002000200000000000300000000000,
|
|
100000001000100000001000100000000000400000000000,
|
|
100000001000100000001000100000001000100000001000,
|
|
200000002000200000002000200000000000000000000000,
|
|
100000001000100000001000100000001000100000001000,
|
|
200000002000200000002000200000000000000000000000,
|
|
200000002000200000002000200000001010100000001000,
|
|
100000001000100000001000100000002020200000002000,
|
|
200000002000200000002000200000001010100000001000,
|
|
100000001000100000001000100000002020200000002000,
|
|
100000002000100000002000100010001000100000000000,
|
|
100000002000100000002000100010001000100000000000,
|
|
100000000000100000000000100000000000100000000000,
|
|
7,
|
|
8,
|
|
100000000000200000002000100000000000200000000000,
|
|
100000000000200000002000100000000000200000000000,
|
|
100000000000200000000000100000000000200000000000,
|
|
400000000000400000000000300000000000300000000000,
|
|
100000000000200000002000100000000000200000000000,
|
|
100000000000200000002000100000000000200000000000,
|
|
300000000000300000000000300000000000300000000000,
|
|
300000000000300000003000000000000000000000000000,
|
|
500000000000000000000000000000000000000000000008,
|
|
|
|
|
|
#END
|
|
|
|
|
|
COURSE:Hard
|
|
LEVEL:5
|
|
|
|
STYLE:Double
|
|
BALLOON:10
|
|
SCOREINIT:460
|
|
SCOREDIFF:100
|
|
|
|
|
|
#START P1
|
|
|
|
|
|
100000000000000000000000100000000000000000000000,
|
|
100000000000100000000000100000000000000000000000,
|
|
100000000000200020002000100000000000200020002000,
|
|
100000000000100000000000300000000000000000000000,
|
|
100000001000100000002000100000001000100000002000,
|
|
100000000000100000000000100000000000400000000000,
|
|
100000001000100000002000100000001000100000002000,
|
|
100000000000100000000000100000000000400000000000,
|
|
101101100400,
|
|
202202200300,
|
|
101101100400,
|
|
202202200300,
|
|
100222100222,
|
|
100222100200,
|
|
101101100400,
|
|
202202200300,
|
|
100000001000100000002000100000001000100000002000,
|
|
100000000000100000000000100000000000400000000000,
|
|
100000001000100000002000100000001000100000002000,
|
|
100000000000100000000000100000000000400000000000,
|
|
100000001000100000001000100000200200200000002000,
|
|
200000002000200000002000200000100100100000001000,
|
|
100000001000100000001000100000200200200000002000,
|
|
200000002000200000002000200000100100100000001000,
|
|
100000001000100000001000100010001000100000000000,
|
|
100000001000100000001000100010001000100000000000,
|
|
100000000000100000000000200000000000200000000000,
|
|
500000000000000000000000000000000000000000008000,
|
|
000000000000000000000000000000000000000000000000,
|
|
1212,
|
|
1222,
|
|
1111,
|
|
3344,
|
|
100000200200200000002000100000200200200000002000,
|
|
100000200200200000002000100000200200200000002000,
|
|
100000000000100000000000100000000000100000000000,
|
|
100000000000100000001000000000000000300000000000,
|
|
200000000000200000002000000000000000400000000000,
|
|
200000000000000000000000200000000000000000000000,
|
|
200000000000200000000000200020002000200000000000,
|
|
100000001000100000002000100000001000100000002000,
|
|
100000000000100000000000100000000000400000000000,
|
|
100000001000100000002000100000001000100000002000,
|
|
100000000000100000000000100000000000400000000000,
|
|
202202200300,
|
|
101101100400,
|
|
202202200300,
|
|
101101100400,
|
|
100222100222,
|
|
100222100200,
|
|
202202200300,
|
|
101101100400,
|
|
100000001000100000001000100000001000100000001000,
|
|
200000002000200000002000200000000000000000000000,
|
|
100000001000100000001000100000001000100000001000,
|
|
200000002000200000002000200000000000000000000000,
|
|
200000002000200000002000200000100100100000001000,
|
|
100000001000100000001000100000200200200000002000,
|
|
200000002000200000002000200000100100100000001000,
|
|
100000001000100000001000100000200200200000002000,
|
|
100000001000100000001000100010001000100000000000,
|
|
100000001000100000001000100010001000100000000000,
|
|
100000000000100000000000200000000000200000000000,
|
|
700000000000000000000000000000000000000000000800,
|
|
000000000000000000000000000000000000000000000000,
|
|
100000000000200000000000100000000000200000000000,
|
|
100000000000200000000000200000000000200000000000,
|
|
100000000000100000000000100000000000100000000000,
|
|
400000000000400000000000300000000000300000000000,
|
|
100000000000200000002000100000000000200000000000,
|
|
100000000000200000002000100000000000200000000000,
|
|
300000000000300000000000300000000000300000000000,
|
|
300000000000300000003000000000000000000000000000,
|
|
500000000000000000000000000000000000000000000800,
|
|
|
|
|
|
#END
|
|
|
|
|
|
#START P2
|
|
|
|
|
|
100000000000000000000000100000000000000000000000,
|
|
100000000000100000000000100000000000000000000000,
|
|
100000000000200020002000100000000000200020002000,
|
|
100000000000100000000000300000000000000000000000,
|
|
100000001000100000002000100000001000100000002000,
|
|
100000000000100000000000100000000000400000000000,
|
|
100000001000100000002000100000001000100000002000,
|
|
100000000000100000000000100000000000400000000000,
|
|
202202200300,
|
|
101101100400,
|
|
202202200300,
|
|
101101100400,
|
|
100222100222,
|
|
100222100200,
|
|
202202200300,
|
|
101101100400,
|
|
100000001000100000002000100000001000100000002000,
|
|
100000000000100000000000100000000000400000000000,
|
|
100000001000100000002000100000001000100000002000,
|
|
100000000000100000000000100000000000400000000000,
|
|
200000002000200000002000200000100100100000001000,
|
|
100000001000100000001000100000200200200000002000,
|
|
200000002000200000002000200000100100100000001000,
|
|
100000001000100000001000100000200200200000002000,
|
|
100000001000100000001000100010001000100000000000,
|
|
100000001000100000001000100010001000100000000000,
|
|
100000000000100000000000200000000000200000000000,
|
|
500000000000000000000000000000000000000000008000,
|
|
000000000000000000000000000000000000000000000000,
|
|
1212,
|
|
1222,
|
|
1111,
|
|
4433,
|
|
100000200200200000002000100000200200200000002000,
|
|
100000200200200000002000100000200200200000002000,
|
|
100000000000100000000000100000000000100000000000,
|
|
100000000000100000001000000000000000300000000000,
|
|
200000000000200000002000000000000000400000000000,
|
|
200000000000000000000000200000000000000000000000,
|
|
200000000000200000000000200020002000200000000000,
|
|
100000001000100000002000100000001000100000002000,
|
|
100000000000100000000000100000000000400000000000,
|
|
100000001000100000002000100000001000100000002000,
|
|
100000000000100000000000100000000000400000000000,
|
|
101101100400,
|
|
202202200300,
|
|
101101100400,
|
|
202202200300,
|
|
100222100222,
|
|
100222100200,
|
|
101101100400,
|
|
202202200300,
|
|
100000001000100000001000100000001000100000001000,
|
|
200000002000200000002000200000000000000000000000,
|
|
100000001000100000001000100000001000100000001000,
|
|
200000002000200000002000200000000000000000000000,
|
|
100000001000100000001000100000200200200000002000,
|
|
200000002000200000002000200000100100100000001000,
|
|
100000001000100000001000100000200200200000002000,
|
|
200000002000200000002000200000100100100000001000,
|
|
100000001000100000001000100010001000100000000000,
|
|
100000001000100000001000100010001000100000000000,
|
|
100000000000100000000000200000000000200000000000,
|
|
700000000000000000000000000000000000000000000800,
|
|
000000000000000000000000000000000000000000000000,
|
|
100000000000200000000000100000000000200000000000,
|
|
100000000000200000000000200000000000200000000000,
|
|
100000000000100000000000100000000000100000000000,
|
|
400000000000400000000000300000000000300000000000,
|
|
100000000000200000002000100000000000200000000000,
|
|
100000000000200000002000100000000000200000000000,
|
|
300000000000300000000000300000000000300000000000,
|
|
300000000000300000003000000000000000000000000000,
|
|
500000000000000000000000000000000000000000000800,
|
|
|
|
|
|
#END
|
|
|
|
|
|
COURSE:Normal
|
|
LEVEL:2
|
|
|
|
STYLE:Double
|
|
BALLOON:10
|
|
SCOREINIT:750
|
|
SCOREDIFF:190
|
|
|
|
|
|
#START P1
|
|
|
|
|
|
100000000000000000000000100000000000000000000000,
|
|
100000000000100000000000100000000000000000000000,
|
|
100000000000000000000000100000000000000000000000,
|
|
100000000000100000000000300000000000000000000000,
|
|
100000000000200000000000100000000000200000000000,
|
|
100000000000100000000000100000000000000000000000,
|
|
100000000000200000000000100000000000200000000000,
|
|
100000000000100000000000100000000000000000000000,
|
|
1110,
|
|
2220,
|
|
1110,
|
|
2220,
|
|
1120,
|
|
1120,
|
|
1130,
|
|
,
|
|
100000000000200000000000100000000000200000000000,
|
|
100000000000100000000000100000000000000000000000,
|
|
100000000000200000000000100000000000200000000000,
|
|
100000000000100000000000100000000000000000000000,
|
|
1110,
|
|
2220,
|
|
1110,
|
|
2220,
|
|
100000000000100000000000100000000000200000000000,
|
|
100000000000100000000000100000000000200000000000,
|
|
100000000000100000000000100000000000100000000000,
|
|
500000000000000000000000000000000000800000000000,
|
|
000000000000000000000000000000000000000000000000,
|
|
1212,
|
|
100202100200,
|
|
1212,
|
|
1122,
|
|
100000000000200000000000100000000000200000000000,
|
|
100000000000200000002000100000000000200000000000,
|
|
100000000000100000000000100000000000100000000000,
|
|
100000000000100000001000000000000000000000000000,
|
|
000000000000000000000000000000000000000000000000,
|
|
200000000000000000000000200000000000000000000000,
|
|
200000000000200000000000200000000000000000000000,
|
|
100000000000200000000000100000000000200000000000,
|
|
100000000000100000000000100000000000000000000000,
|
|
100000000000200000000000100000000000200000000000,
|
|
100000000000100000000000100000000000000000000000,
|
|
2220,
|
|
1110,
|
|
2220,
|
|
1110,
|
|
1120,
|
|
1120,
|
|
,
|
|
1140,
|
|
100000000000200000000000100000000000200000000000,
|
|
200000000000200000000000200000000000000000000000,
|
|
100000000000200000000000100000000000200000000000,
|
|
200000000000200000000000200000000000000000000000,
|
|
1110,
|
|
2220,
|
|
1110,
|
|
2220,
|
|
100000000000100000000000100000000000200000000000,
|
|
100000000000100000000000100000000000200000000000,
|
|
100000000000100000000000100000000000100000000000,
|
|
700000000000000000000000000000000000000000800000,
|
|
000000000000000000000000000000000000000000000000,
|
|
100000000000200000000000100000000000200000000000,
|
|
100000000000200000002000100000000000200000000000,
|
|
100000000000200000000000100000000000200000000000,
|
|
300000000000000000000000300000000000000000000000,
|
|
100000000000200000000000100000000000200000000000,
|
|
100000000000200000002000100000000000200000000000,
|
|
100000000000100000000000100000000000100000000000,
|
|
100000000000100000001000000000000000000000000000,
|
|
500000000000000000000000000000000000000000008000,
|
|
|
|
|
|
#END
|
|
|
|
|
|
#START P2
|
|
|
|
|
|
100000000000000000000000100000000000000000000000,
|
|
100000000000100000000000100000000000000000000000,
|
|
100000000000000000000000100000000000000000000000,
|
|
100000000000100000000000300000000000000000000000,
|
|
100000000000200000000000100000000000200000000000,
|
|
100000000000100000000000100000000000000000000000,
|
|
100000000000200000000000100000000000200000000000,
|
|
100000000000100000000000100000000000000000000000,
|
|
2220,
|
|
1110,
|
|
2220,
|
|
1110,
|
|
1120,
|
|
1120,
|
|
,
|
|
1130,
|
|
100000000000200000000000100000000000200000000000,
|
|
100000000000100000000000100000000000000000000000,
|
|
100000000000200000000000100000000000200000000000,
|
|
100000000000100000000000100000000000000000000000,
|
|
2220,
|
|
1110,
|
|
2220,
|
|
1110,
|
|
100000000000100000000000100000000000200000000000,
|
|
100000000000100000000000100000000000200000000000,
|
|
100000000000100000000000100000000000100000000000,
|
|
500000000000000000000000000000000000800000000000,
|
|
000000000000000000000000000000000000000000000000,
|
|
1212,
|
|
100202100200,
|
|
1212,
|
|
2211,
|
|
100000000000200000000000100000000000200000000000,
|
|
100000000000200000002000100000000000200000000000,
|
|
100000000000100000000000100000000000100000000000,
|
|
100000000000100000001000000000000000000000000000,
|
|
000000000000000000000000000000000000000000000000,
|
|
200000000000000000000000200000000000000000000000,
|
|
200000000000200000000000200000000000000000000000,
|
|
100000000000200000000000100000000000200000000000,
|
|
100000000000100000000000100000000000000000000000,
|
|
100000000000200000000000100000000000200000000000,
|
|
100000000000100000000000100000000000000000000000,
|
|
1110,
|
|
2220,
|
|
1110,
|
|
2220,
|
|
1120,
|
|
1120,
|
|
1140,
|
|
,
|
|
100000000000200000000000100000000000200000000000,
|
|
200000000000200000000000200000000000000000000000,
|
|
100000000000200000000000100000000000200000000000,
|
|
200000000000200000000000200000000000000000000000,
|
|
2220,
|
|
1110,
|
|
2220,
|
|
1110,
|
|
100000000000100000000000100000000000200000000000,
|
|
100000000000100000000000100000000000200000000000,
|
|
100000000000100000000000100000000000100000000000,
|
|
700000000000000000000000000000000000000000800000,
|
|
000000000000000000000000000000000000000000000000,
|
|
100000000000200000000000100000000000200000000000,
|
|
100000000000200000002000100000000000200000000000,
|
|
100000000000200000000000100000000000200000000000,
|
|
300000000000000000000000300000000000000000000000,
|
|
100000000000200000000000100000000000200000000000,
|
|
100000000000200000002000100000000000200000000000,
|
|
100000000000100000000000100000000000100000000000,
|
|
100000000000100000001000000000000000000000000000,
|
|
500000000000000000000000000000000000000000008000,
|
|
|
|
|
|
#END
|
|
|
|
|
|
COURSE:Easy
|
|
LEVEL:3
|
|
|
|
STYLE:Double
|
|
BALLOON:10
|
|
SCOREINIT:700
|
|
SCOREDIFF:190
|
|
|
|
|
|
#START P1
|
|
|
|
|
|
100000000000000000000000100000000000000000000000,
|
|
100000000000100000000000100000000000000000000000,
|
|
100000000000000000000000100000000000000000000000,
|
|
100000000000100000000000300000000000000000000000,
|
|
100000000000000000000000100000000000000000000000,
|
|
100000000000100000000000100000000000000000000000,
|
|
100000000000000000000000100000000000000000000000,
|
|
100000000000100000000000100000000000000000000000,
|
|
1110,
|
|
2220,
|
|
1110,
|
|
2220,
|
|
02,
|
|
02,
|
|
1130,
|
|
,
|
|
100000000000000000000000100000000000000000000000,
|
|
100000000000100000000000300000000000000000000000,
|
|
100000000000000000000000100000000000000000000000,
|
|
100000000000100000000000300000000000000000000000,
|
|
1110,
|
|
2220,
|
|
1110,
|
|
2220,
|
|
100000000000100000000000100000000000200000000000,
|
|
100000000000100000000000100000000000200000000000,
|
|
100000000000100000000000100000000000100000000000,
|
|
500000000000000000000000000000000000800000000000,
|
|
000000000000000000000000000000000000000000000000,
|
|
1212,
|
|
1212,
|
|
1111,
|
|
34,
|
|
100000000000200000000000100000000000200000000000,
|
|
100000000000200000000000100000000000200000000000,
|
|
100000000000100000000000100000000000100000000000,
|
|
100000000000100000001000000000000000000000000000,
|
|
000000000000000000000000000000000000000000000000,
|
|
000000000000000000000000200000000000000000000000,
|
|
000000000000000000000000200000000000000000000000,
|
|
100000000000000000000000100000000000000000000000,
|
|
100000000000100000000000300000000000000000000000,
|
|
100000000000000000000000100000000000000000000000,
|
|
100000000000100000000000300000000000000000000000,
|
|
2220,
|
|
1110,
|
|
2220,
|
|
1110,
|
|
02,
|
|
02,
|
|
,
|
|
1140,
|
|
100000000000000000000000100000000000000000000000,
|
|
200000000000200000000000200000000000000000000000,
|
|
100000000000000000000000100000000000000000000000,
|
|
200000000000200000000000200000000000000000000000,
|
|
1110,
|
|
2220,
|
|
1110,
|
|
2220,
|
|
100000000000100000000000100000000000200000000000,
|
|
100000000000100000000000100000000000200000000000,
|
|
100000000000100000000000100000000000100000000000,
|
|
700000000000000000000000000000000000000000800000,
|
|
000000000000000000000000000000000000000000000000,
|
|
100000000000200000000000100000000000200000000000,
|
|
100000000000200000000000100000000000200000000000,
|
|
100000000000100000000000100000000000100000000000,
|
|
300000000000000000000000300000000000000000000000,
|
|
100000000000200000000000100000000000200000000000,
|
|
100000000000200000000000100000000000200000000000,
|
|
100000000000100000000000100000000000100000000000,
|
|
100000000000100000001000000000000000000000000000,
|
|
500000000000000000000000000000000000000000008000,
|
|
|
|
|
|
#END
|
|
|
|
|
|
#START P2
|
|
|
|
|
|
100000000000000000000000100000000000000000000000,
|
|
100000000000100000000000100000000000000000000000,
|
|
100000000000000000000000100000000000000000000000,
|
|
100000000000100000000000300000000000000000000000,
|
|
100000000000000000000000100000000000000000000000,
|
|
100000000000100000000000100000000000000000000000,
|
|
100000000000000000000000100000000000000000000000,
|
|
100000000000100000000000100000000000000000000000,
|
|
2220,
|
|
1110,
|
|
2220,
|
|
1110,
|
|
02,
|
|
02,
|
|
,
|
|
1130,
|
|
100000000000000000000000100000000000000000000000,
|
|
100000000000100000000000300000000000000000000000,
|
|
100000000000000000000000100000000000000000000000,
|
|
100000000000100000000000300000000000000000000000,
|
|
2220,
|
|
1110,
|
|
2220,
|
|
1110,
|
|
100000000000100000000000100000000000200000000000,
|
|
100000000000100000000000100000000000200000000000,
|
|
100000000000100000000000100000000000100000000000,
|
|
500000000000000000000000000000000000800000000000,
|
|
000000000000000000000000000000000000000000000000,
|
|
1212,
|
|
1212,
|
|
1111,
|
|
43,
|
|
100000000000200000000000100000000000200000000000,
|
|
100000000000200000000000100000000000200000000000,
|
|
100000000000100000000000100000000000100000000000,
|
|
100000000000100000001000000000000000000000000000,
|
|
000000000000000000000000000000000000000000000000,
|
|
000000000000000000000000200000000000000000000000,
|
|
000000000000000000000000200000000000000000000000,
|
|
100000000000000000000000100000000000000000000000,
|
|
100000000000100000000000300000000000000000000000,
|
|
100000000000000000000000100000000000000000000000,
|
|
100000000000100000000000300000000000000000000000,
|
|
1110,
|
|
2220,
|
|
1110,
|
|
2220,
|
|
02,
|
|
02,
|
|
1140,
|
|
,
|
|
100000000000000000000000100000000000000000000000,
|
|
200000000000200000000000200000000000000000000000,
|
|
100000000000000000000000100000000000000000000000,
|
|
200000000000200000000000200000000000000000000000,
|
|
2220,
|
|
1110,
|
|
2220,
|
|
1110,
|
|
100000000000100000000000100000000000200000000000,
|
|
100000000000100000000000100000000000200000000000,
|
|
100000000000100000000000100000000000100000000000,
|
|
700000000000000000000000000000000000000000800000,
|
|
000000000000000000000000000000000000000000000000,
|
|
100000000000200000000000100000000000200000000000,
|
|
100000000000200000000000100000000000200000000000,
|
|
100000000000100000000000100000000000100000000000,
|
|
300000000000000000000000300000000000000000000000,
|
|
100000000000200000000000100000000000200000000000,
|
|
100000000000200000000000100000000000200000000000,
|
|
100000000000100000000000100000000000100000000000,
|
|
100000000000100000001000000000000000000000000000,
|
|
500000000000000000000000000000000000000000008000,
|
|
|
|
|
|
#END
|
|
|