forked from ESE/ESE
261 lines
7.0 KiB
Plaintext
261 lines
7.0 KiB
Plaintext
//TJADB Project
|
|
TITLE:Misenai Namida wa, Kitto Itsuka
|
|
TITLEJA:ミセナイナミダハ、きっといつか
|
|
SUBTITLE:--GReeeeN/Strawberry Night
|
|
BPM:83
|
|
WAVE:Misenai Namida wa, Kitto Itsuka.ogg
|
|
OFFSET:-1.874
|
|
DEMOSTART:49.538
|
|
|
|
COURSE:Oni
|
|
LEVEL:6
|
|
SCOREINIT:1260
|
|
SCOREDIFF:340
|
|
|
|
|
|
#START
|
|
|
|
|
|
#MEASURE 2/4
|
|
#LYRIC Itsu no ma ni wasureteta no
|
|
,
|
|
|
|
#MEASURE 4/4
|
|
10201120,
|
|
10
|
|
#LYRIC Ki ga tsukeba afureta namida
|
|
00,
|
|
10201120,
|
|
10000
|
|
#LYRIC Betsuni kime teta wake janai ndakedo
|
|
000,
|
|
10201120,
|
|
1010100
|
|
#LYRIC Mijime ni omoeta no ka na
|
|
0,
|
|
10201120,
|
|
#BPMCHANGE 83.34
|
|
500000000000000008000
|
|
#LYRIC Nakanai you ni kuishibatta
|
|
000000000000000000000000000,
|
|
#BPMCHANGE 83
|
|
1000201110102000,
|
|
10002011
|
|
#LYRIC Sonna mainichi seotte iki teta
|
|
10202000,
|
|
1000201110102000,
|
|
1000201110
|
|
#LYRIC Dakedo anata ga kureta “daijoubu” ga
|
|
202000,
|
|
1000201110102000,
|
|
10002011102020
|
|
#LYRIC Mou ii yotte kikoeta
|
|
10,
|
|
1001101110101100,
|
|
#BPMCHANGE 83.07
|
|
600000000000000008
|
|
#LYRIC “Misenai namida” wa kitto itsuka
|
|
000000000000000000000000000000,
|
|
|
|
#GOGOSTART
|
|
#BPMCHANGE 83
|
|
10102011010120
|
|
#LYRIC Niji to nari sekai terashite
|
|
00,
|
|
10102011010220
|
|
#LYRIC Taisetsu na hitotachi wo
|
|
00,
|
|
10102011101020
|
|
#LYRIC Mamoru hikari to naru
|
|
00,
|
|
30003000400040
|
|
#LYRIC Mina kakaeru nimotsu demo
|
|
00,
|
|
10102011010120
|
|
#LYRIC Heiki na kao de Tsuyogari
|
|
00,
|
|
10102011010220
|
|
#LYRIC Tada namida namida namida demo kimi ga waraeru nara
|
|
00,
|
|
1112221112201010,
|
|
1133,
|
|
#LYRIC Namida ya Tsuyogari wa koete iku tame no chikai
|
|
1010201101012000,
|
|
10102011010220
|
|
#LYRIC Taisetsu na hitotachi wo michibiku Akari to naru
|
|
00,
|
|
1010201110102000,
|
|
30003000400040
|
|
#LYRIC Kimi ga waratte iru nara heiki na kao de irareru
|
|
00,
|
|
1010201101012000,
|
|
10102011010220
|
|
#LYRIC “Tada namida nagashi naita himo”
|
|
00,
|
|
111222111220
|
|
#LYRIC Kitto waraeru kara
|
|
1010,
|
|
1000101110102222,
|
|
#GOGOEND
|
|
00
|
|
#LYRIC
|
|
00,
|
|
|
|
|
|
#END
|
|
|
|
|
|
COURSE:Hard
|
|
LEVEL:4
|
|
BALLOON:12,12
|
|
SCOREINIT:1250
|
|
SCOREDIFF:340
|
|
|
|
|
|
#START
|
|
|
|
|
|
100000000000000000000000100000000000200000000000,
|
|
100000000000000000000000000000000000000000000000,
|
|
100000000000000000000000100000000000200000000000,
|
|
100000000000000000000000000000000000000000000000,
|
|
100000000000200000000000100000100000200000000000,
|
|
100000000000100000000000100000000000000000000000,
|
|
100000000000200000000000100000100000200000000000,
|
|
500000000000800000000000000000000000000000000000,
|
|
100000000000200000100000100000000000200000000000,
|
|
100000000000200000100000100000000000100000000000,
|
|
100000000000200000100000100000000000200000000000,
|
|
100000000000200000100000100000000000000000000000,
|
|
100000000000200000100000100000000000200000000000,
|
|
100000000000100000100000200000000000000000000000,
|
|
100000000100100000100000100000100000100100000000,
|
|
600000000000000800000000000000000000000000000000,
|
|
|
|
#GOGOSTART
|
|
100000100000100000100100000100000100100000000000,
|
|
100000100000100000200200000200000200200000000000,
|
|
100000100000200000000000100000100000200000000000,
|
|
300000000000300000000000300000000000000000000000,
|
|
100000100000100000100100000100000100100000000000,
|
|
100000100000100000200200000200000200200000000000,
|
|
700000000000000000000800000000000000100000100000,
|
|
100000000000100000000000300000000000300000000000,
|
|
100000100000100000100100000100000100100000000000,
|
|
100000100000100000200200000200000200200000000000,
|
|
100000100000200000000000100000100000200000000000,
|
|
300000000000300000000000300000000000000000000000,
|
|
100000100000100000100100000100000100100000000000,
|
|
100000100000100000200200000200000200200000000000,
|
|
700000000000000000000800000000000000100000100000,
|
|
100000000000100000000000300000300000400000400000,
|
|
|
|
#GOGOEND
|
|
|
|
|
|
#END
|
|
|
|
|
|
COURSE:Normal
|
|
LEVEL:3
|
|
BALLOON:10,16
|
|
SCOREINIT:1370
|
|
SCOREDIFF:530
|
|
|
|
|
|
#START
|
|
|
|
|
|
100000000000000000000000100000000000000000000000,
|
|
100000000000000000000000000000000000000000000000,
|
|
200000000000000000000000200000000000000000000000,
|
|
200000000000000000000000000000000000000000000000,
|
|
100000000000000000000000100000000000000000000000,
|
|
100000000000100000000000100000000000000000000000,
|
|
100000000000100000000000200000000000200000000000,
|
|
500000000000800000000000000000000000000000000000,
|
|
100000000000000000000000100000100000100000000000,
|
|
100000000000000000000000100000000000100000000000,
|
|
100000000000000000000000100000100000100000000000,
|
|
100000000000000000000000000000000000000000000000,
|
|
100000000000000000000000100000100000100000000000,
|
|
100000000000100000000000100000000000000000000000,
|
|
100000000000100000000000300000000000300000000000,
|
|
600000000000800000000000000000000000000000000000,
|
|
|
|
#GOGOSTART
|
|
100000000000100000000000100000100000100000000000,
|
|
200000000000200000000000200000200000200000000000,
|
|
100000000000100000000000100000100000100000000000,
|
|
300000000000300000000000300000000000000000000000,
|
|
100000000000100000000000100000100000100000000000,
|
|
200000000000200000000000200000200000200000000000,
|
|
700000000000000000000000800000000000000000000000,
|
|
100000000000000000000000300000000000000000000000,
|
|
100000000000100000000000200000200000200000000000,
|
|
100000000000100000000000200000200000200000000000,
|
|
100000100000100000000000200000200000200000000000,
|
|
300000000000300000000000300000000000000000000000,
|
|
100000000000100000000000100000100000200000000000,
|
|
100000000000100000000000100000100000200000000000,
|
|
500000000000000000000000800000000000000000000000,
|
|
900000000000000000000000000000000000800000000000,
|
|
|
|
#BARLINEOFF
|
|
#GOGOEND
|
|
|
|
|
|
#END
|
|
|
|
|
|
COURSE:Easy
|
|
LEVEL:1
|
|
BALLOON:7,12
|
|
SCOREINIT:1140
|
|
SCOREDIFF:600
|
|
|
|
|
|
#START
|
|
|
|
|
|
100000000000000000000000100000000000000000000000,
|
|
100000000000000000000000000000000000000000000000,
|
|
200000000000000000000000200000000000000000000000,
|
|
200000000000000000000000000000000000000000000000,
|
|
100000000000000000000000100000000000000000000000,
|
|
100000000000100000000000100000000000000000000000,
|
|
100000000000000000000000100000000000000000000000,
|
|
500000000000000080000000000000000000000000000000,
|
|
100000000000000000000000100000000000100000000000,
|
|
100000000000000000000000100000000000100000000000,
|
|
100000000000000000000000100000000000000000000000,
|
|
100000000000000000000000000000000000000000000000,
|
|
100000000000000000000000100000000000000000000000,
|
|
100000000000100000000000100000000000000000000000,
|
|
300000000000300000000000300000000000300000000000,
|
|
600000000000000080000000000000000000000000000000,
|
|
|
|
#GOGOSTART
|
|
100000000000100000000000100000000000000000000000,
|
|
200000000000200000000000200000000000000000000000,
|
|
100000000000000000000000100000000000000000000000,
|
|
300000000000300000000000300000000000000000000000,
|
|
100000000000100000000000100000000000000000000000,
|
|
200000000000200000000000200000000000000000000000,
|
|
700000000000000000000000000080000000000000000000,
|
|
100000000000000000000000300000000000000000000000,
|
|
100000000000100000000000200000000000000000000000,
|
|
100000000000100000000000200000000000000000000000,
|
|
100000000000000000000000100000000000000000000000,
|
|
300000000000300000000000300000000000000000000000,
|
|
100000000000100000000000200000000000000000000000,
|
|
100000000000100000000000200000000000000000000000,
|
|
500000000000000000000000000080000000000000000000,
|
|
900000000000000000000000000000000000000080000000,
|
|
|
|
#GOGOEND
|
|
|
|
|
|
#END
|
|
|