Files
2023-01-17 00:45:18 -05:00

332 lines
13 KiB
Plaintext

//TJADB Project
TITLE:NO MORE CRY
TITLEJA:NO MORE CRY
SUBTITLE:--D-51/Gokusen
SUBTITLEJA:TVドラマ「ごくせん」より
BPM:137
WAVE:NO MORE CRY.ogg
OFFSET:-3.942
DEMOSTART:84.526
COURSE:Oni
LEVEL:6
BALLOON:30
SCOREINIT:780
SCOREDIFF:150
#START
000000000000000000000000000000000000000000000000,
000000000000000000000000000000000000000000000000,
100000000000000000000000100000000000000000100000,
000000000000000000000000000000000000000000000000,
100000000000000000000000100000000000000000100000,
000000000000000000000000200000000000200000000000,
100000200000000000200000100000200000000000200000,
100000100100100000200000000000200000000000200000,
100000200000000000200000100000200000000000200000,
100000100100100000200000000000200000000000200000,
000000200000100000200000000000200000100000200000,
100000100100100000200000000000200200200000200000,
100000200000000000200000100000200000000000200000,
100000200200200000200000000000200000200000000000,
100000200000000000200000100000200000100000200000,
100000200000000000200000100100100000100000200000,
100000200000000000200000000000200000000000200000,
100000200000000000200000100100100000200000200000,
100000200000000000200000000000200000100000200000,
100000200000000000200000100000100000100000200000,
100000200000000000200000100000200000000000200000,
100000200000100000200000000000100000100000000000,
100000200000000000200000100100100000100000200000,
100000200000000000200000100100100000100000200000,
100000200000000000200000100100100000100000200000,
100000200000000000200000100100100000100000200000,
100000100100100000200000100000200000000000200000,
100000200200200000200000100000200000000000200000,
100000200200200000200000100000200000200000200000,
100000200200200000200000100000200000200000000000,
200000200000100100100000100000200000100000200000,
200000200000100100100000100000200000000000200000,
100000200000000000200000100000200000000000200000,
100000200000100100100000100000200200200000200000,
100000200000000000200000100000200000000000200000,
100000200000100000200000100000200200200000200000,
100000200000000000200000100000200000000000200000,
100000200200200000200000100000200000200000000000,
100000200000100000200000100000100100100000200000,
100000200000100000200000100000100100100000200000,
100000200000100100200000100000100100100000200000,
100000200000100100200000100000100100100000200000,
100000000000200000100000000000200000200000000000,
100000000000200000100000000000000000500000000000,
000000000000000000000000000000000008000000000000,
000000200200200000200000200000000000200000000000,
#GOGOSTART
300000000000000000000000300000000000000000300000,
000000000000000000000000200000200000200000000000,
300000000000000000000000300000000000000000300000,
000000000000000000000000200200200000200000000000,
100000000100100000200000100200000100200000200000,
100000000100100000200000100200000100200000100000,
500000000000000000000000000000000000000000000008,
000000000000000000000000100100100000200000000000,
100000200100100000200200100000200100100000200200,
100000200100100000000000200000200000200000000000,
100000200100100000200200100000200100100000200200,
100000200100100000000000200200200000200000000000,
100000000100100000200000100200000100200000200000,
100000000100100000200000100200000100200000100000,
100100100100100000200000100100100100100000200000,
100100100000100000200000100000100100200000100000,
700000000000000000000000000000000000000000000008,
#GOGOEND
#END
COURSE:Hard
LEVEL:3
BALLOON:16
SCOREINIT:640
SCOREDIFF:220
#START
000000000000000000000000000000000000000000000000,
000000000000000000000000000000000000000000000000,
100000000000000000000000100000000000000000100000,
000000000000000000000000000000000000000000000000,
100000000000000000000000100000000000000000100000,
000000000000000000000000200000000000200000000000,
100000000000200000000000100000000000200000100000,
000000000000000000000000200000000000200000000000,
100000000000200000000000100000000000200000100000,
000000000000000000000000200000000000200000000000,
000000000000200000000000000000000000200000000000,
000000000000200000000000000000200000200000000000,
100000000000200000000000100000000000200000000000,
100000000000000000000000100000000000000000000000,
100000000000200000000000100000100000200000000000,
100000000000100000000000100000100000200000000000,
100000000000200000000000100000100000200000000000,
100000000000100000000000200000200000200000000000,
100000000000200000000000100000000000200000000000,
100000000000100000000000100000000000000000000000,
100000000000000000000000100000000000200000200000,
000000000000100000000000200000200000200000000000,
100000000000200000000000200000200000200000000000,
100000000000200000000000100000100000100000000000,
100000000000200000000000100000200000200000000000,
100000000000100000000000200000200000200000000000,
100000000000100000000000200000000000200000000000,
100000000000100000000000200000200000200000000000,
100000000000000000000000100000000000200000200000,
000000000000000000000000000000000000000000000000,
100000000000000000100000000000200000200000000000,
100000000000000000100000000000200000200000000000,
100000000000100000000000200000200000200000000000,
100000000000000000100000000000200000200000000000,
100000200000000000200000000000200000200000000000,
100000200000000000200000000000200000200000000000,
100000000000000000100000000000200000200000000000,
100000000000000000100000000000200000200000000000,
100000200000100000200000000000100000200000000000,
100000200000100000200000000000200000200000000000,
100000200000100000200000000000100000200000000000,
100000200000100000200000000000200000200000000000,
100000000000200000100000000000200000200000000000,
100000000000200000100000000000000000500000000000,
000000000000000000000000000000800000000000000000,
000000200000200000000000200000000000200000000000,
#GOGOSTART
300000000000000000000000300000000000000000300000,
000000000000000000000000200000000000200000000000,
300000000000000000000000300000000000000000300000,
000000000000000000000000200000200000200000000000,
100000100000100000200000000000200000000000200000,
100000200000100000200000000000200000000000200000,
100000200000000000200000100000200000000000200000,
100000000000000000000000200000000000200000000000,
300000000000000000000000300000000000000000300000,
000000000000000000000000200200200000200000000000,
300000000000000000000000300000000000000000300000,
000000000000000000000000200000200000200000000000,
100000100000100000200000000000200000000000200000,
100000200000100000200000000000200000000000200000,
500000000000000000000000000000800000000000000000,
100000100000100000000000200000200000200000000000,
900000000000000000000000000000000000000000000008,
#GOGOEND
#END
COURSE:Normal
LEVEL:3
BALLOON:11
SCOREINIT:770
SCOREDIFF:270
#START
000000000000000000000000000000000000000000000000,
000000000000000000000000000000000000000000000000,
100000000000000000000000100000000000000000100000,
000000000000000000000000000000000000000000000000,
100000000000000000000000100000000000000000100000,
000000000000000000000000000000000000000000000000,
100000000000000000000000100000000000000000100000,
000000000000000000000000200000000000200000000000,
100000000000000000000000100000000000000000100000,
000000000000000000000000000000000000000000000000,
000000000000200000000000000000000000200000000000,
000000000000200000000000000000000000200000000000,
100000000000000000000000100000000000000000000000,
100000000000100000000000100000000000000000000000,
100000000000200000000000100000000000200000000000,
100000000000000000000000200000000000000000000000,
100000000000200000000000100000000000200000000000,
100000000000000000000000200000000000000000000000,
100000000000100000000000200000000000000000000000,
100000000000100000000000200000000000000000000000,
100000000000000000000000100000000000000000000000,
100000000000000000000000000000000000000000000000,
100000000000200000000000100000000000200000000000,
100000000000000000000000200000000000200000000000,
100000000000200000000000100000000000200000000000,
100000000000000000000000200000000000200000000000,
100000000000200000000000000000000000200000000000,
100000000000200000000000000000000000200000000000,
100000000000000000000000100000000000000000000000,
100000000000000000000000000000000000000000000000,
100000000000200000000000000000000000200000000000,
100000000000200000000000000000000000200000000000,
100000000000000000000000100000000000000000000000,
100000000000200000000000100000000000000000000000,
100000000000100000000000200000000000000000000000,
100000000000100000000000200000000000000000000000,
100000000000000000000000100000000000000000000000,
100000000000200000000000100000000000000000000000,
100000000000200000000000100000000000200000000000,
100000000000200000000000000000200000200000000000,
100000000000200000000000100000000000200000000000,
100000000000200000000000000000200000200000000000,
100000000000000000100000000000000000200000000000,
100000000000000000100000000000000000500000000000,
000000000000000000000000000000800000000000000000,
000000000000000000000000100000000000100000000000,
#GOGOSTART
300000000000000000000000300000000000000000300000,
000000000000000000000000200000000000200000000000,
300000000000000000000000300000000000000000300000,
000000000000000000000000200000000000200000000000,
100000000000200000000000000000000000200000000000,
100000000000200000000000000000000000200000000000,
100000000000000000000000100000000000000000000000,
100000000000000000000000100000000000100000000000,
300000000000000000000000300000000000000000300000,
000000000000000000000000200000000000200000000000,
300000000000000000000000300000000000000000300000,
000000000000000000000000200000000000200000000000,
100000000000100000000000200000200000200000000000,
100000000000100000000000200000000000000000000000,
100000000000000000000000200000000000000000000000,
100000000000100000000000100000100000100000000000,
900000000000000000000000000000000000000000000008,
#GOGOEND
#END
COURSE:Easy
LEVEL:3
BALLOON:11
SCOREINIT:820
SCOREDIFF:230
#START
000000000000000000000000000000000000000000000000,
000000000000000000000000000000000000000000000000,
100000000000000000000000100000000000000000100000,
000000000000000000000000000000000000000000000000,
100000000000000000000000100000000000000000100000,
000000000000000000000000000000000000000000000000,
100000000000000000000000100000000000000000100000,
000000000000000000000000200000000000200000000000,
100000000000000000000000100000000000000000100000,
000000000000000000000000000000000000000000000000,
000000000000000000000000200000000000000000000000,
000000000000000000000000200000000000000000000000,
100000000000000000000000100000000000000000000000,
100000000000000000000000000000000000000000000000,
100000000000200000000000100000000000000000000000,
100000000000000000000000200000000000000000000000,
100000000000200000000000100000000000000000000000,
100000000000000000000000200000000000000000000000,
100000000000100000000000200000000000000000000000,
100000000000100000000000200000000000000000000000,
100000000000000000000000100000000000000000000000,
100000000000000000000000000000000000000000000000,
100000000000200000000000100000000000000000000000,
100000000000000000000000200000000000000000000000,
100000000000200000000000100000000000000000000000,
100000000000000000000000200000000000000000000000,
100000000000200000000000200000000000000000000000,
100000000000200000000000200000000000000000000000,
100000000000000000000000100000000000000000000000,
100000000000000000000000000000000000000000000000,
100000000000200000000000000000000000200000000000,
000000000000200000000000000000000000200000000000,
100000000000000000000000100000000000000000000000,
100000000000000000000000000000000000000000000000,
100000000000100000000000200000000000000000000000,
100000000000100000000000200000000000000000000000,
100000000000000000000000200000000000000000000000,
100000000000000000000000000000000000000000000000,
100000000000000000000000100000000000000000000000,
100000000000100000000000100000000000000000000000,
100000000000000000000000100000000000000000000000,
100000000000200000000000100000000000000000000000,
100000000000000000100000000000000000100000000000,
100000000000000000100000000000000000500000000000,
000000000000000000000000000000800000000000000000,
000000000000000000000000100000000000100000000000,
#GOGOSTART
300000000000000000000000300000000000000000300000,
000000000000000000000000000000000000000000000000,
300000000000000000000000300000000000000000300000,
000000000000000000000000000000000000000000000000,
100000000000200000000000000000000000200000000000,
100000000000200000000000000000000000200000000000,
500000000000000000000000000000800000000000000000,
000000000000000000000000100000000000100000000000,
300000000000000000000000300000000000000000300000,
000000000000000000000000000000000000000000000000,
300000000000000000000000300000000000000000300000,
000000000000000000000000000000000000000000000000,
100000000000200000000000000000000000200000000000,
100000000000200000000000000000000000200000000000,
500000000000000000000000800000000000000000000000,
100000000000100000000000100000000000000000000000,
900000000000000000000000000000000000000000000008,
#GOGOEND
#END