Files
2023-06-15 19:15:39 -05:00

271 lines
9.8 KiB
Plaintext

//TJADB Project
TITLE:Neo Melodramatic
TITLEJA:ネオメロドラマティック
SUBTITLE:--Porno Graffitti/Move Custom
BPM:126
WAVE:Neo Melodramatic.ogg
OFFSET:-1.957
DEMOSTART:72.425
COURSE:Oni
LEVEL:5
#START
,
#GOGOSTART
100000000000200000100000100000100200000000100000,
100000000000200000100000100000100100200000000000,
100000000000200000100000100000100200000000100000,
100000000000200000100100100000100000200000000000,
100000000000200000100000100000100200000000100000,
100000000000200000100000100000100100200000000000,
100000000000200000100000100000100200000000100000,
100000000000200000100100100000100000200000000000,
#GOGOEND
100000200200100200000200000000100000200000100000,
100000200200100200000200000000200000100000200000,
100000200200100200000200000000100000200000100000,
100000200200100200000200000000200000100000200000,
100000000000200000000100100000100000200000000000,
100000000000200000100100000100100000200000000000,
100100100000200000100100100000100000200000000000,
100000000000200000100100000100100000200000000000,
100000000100200000100100100000100000200000000000,
100000000100200000100100000100100000200000000000,
200200200000100000100100100000100000200000100100,
100000000000100000000100000000000000000000000000,
200000100100200100000100000000100000200000100000,
200000100100200100000100000000200000100000200000,
100000000000200000000100100000100000200000000000,
100000000000200000100100000100100000200000000000,
100100100000200000100100100000100000200000000000,
100000000000200000100100000100100000200000000000,
100000000100200000100100100000100000200000000000,
100000000100200000100100000100100000200000000000,
200200200000100000100100100000100000200000100100,
100000000000100000000100000000000000000000000000,
100000000100200000100000200000100000200000100000,
100000000100200000100000200000100000200200200000,
100000000100200000100000200000100000200000100000,
100000000000100000200100100000200000100000200000,
100100200000100000200100100000000000100000500000,
000000000000000000000000000008000000000000000000,
#GOGOSTART
100000000000100000200000100100200100000000100000,
100100200100000000200000100000100000200000000000,
100000000000100000200000100100200100000000100000,
100100200100000000200000100000100000200000000000,
100000000000100000100000100100200100000100100000,
100100200100000100200000100000100000200000000000,
100000000000100000200000100100200100000100100000,
100100200100000100200000300000300000400000000000,
200000000000200000200000200200000200000000200000,
200200000200000000000000400000400000400000000000,
#GOGOEND
#END
COURSE:Hard
LEVEL:4
SCOREINIT:750
SCOREDIFF:210
#START
,
#GOGOSTART
100000000000100000100000100100000100000000000000,
100000000000100000000000100000100000100000000000,
100000000000100000100000100100000100000000000000,
100000000000100000000000100000100000100000000000,
100000000000100000100000100100000100000000000000,
100000000000100000000000100000100000100000000000,
100000000000100000100000100100000100000000000000,
100000000000100000000000100000100000200000000000,
#GOGOEND
000000200200000200000200000000100000200000100000,
000000200200000200000200000000200000100000200000,
000000200200000200000200000000100000200000100000,
000000200200000200000200000000200000100000200000,
100000000000200000000000100000100000200000000000,
100000000000200000000100100000100000200000000000,
100100100000200000000000100000100000200000000000,
100000000000200000100100000000100000200000000000,
100000000000200000000000100000100000200000000000,
100000000000200000000000100000100000200000000000,
200200200000100000000100000000100000200000000000,
100000000000100000000100000000000000000000000000,
100000100100000100000100000000200000100000200000,
100000100100000100000100000000100000200000100000,
100000000000200000000000100000100000200000000000,
100000000000200000000100100000100000200000000000,
100100100000200000000000100000100000200000000000,
100000000000200000000100100000100000200000000000,
100000000000200000000000100000100000200000000000,
100000000000200000000100100000100000200000000000,
200200200000100000100000000000100000200000000000,
100000000000100000000100000000000000000000000000,
100000200000100000200000000000000000100100100000,
100000200000100000200000000000000000100100100000,
100000200000100000200000000000100000100000200000,
100000100000200000100000000000100000200000100000,
000000100000200000000000100000000000100000500000,
000000000000000000000000000080000000000000000000,
#GOGOSTART
100000000000100000100000100100000100000000000000,
100000000000200000000000100000100000100000000000,
100000000000100000100000100100000100000000000000,
100000000000200000000000100000100000200000000000,
100000000000100000100000100100000100000000000000,
100000000000200000000000100000100000100000000000,
100000000000100000100000100100000100000000000000,
100000000000100000100000100000100000200000000000,
200000000000200000200000200200000200000000200000,
200200000200000000000000400000400000400000000000,
#GOGOEND
#END
COURSE:Normal
LEVEL:4
SCOREINIT:880
SCOREDIFF:220
#START
,
#GOGOSTART
100000000000100000100000100000000100000000000000,
100000000000200000000000100000100000100000000000,
100000000000100000100000100000000100000000000000,
100000000000200000000000100000100000100000000000,
100000000000100000100000100000000100000000000000,
100000000000200000000000100000100000100000000000,
100000000000100000100000100000000100000000000000,
100000100000100000000000100000100000100000000000,
#GOGOEND
000000000000000000000000000000100000200000100000,
000000000000000000000000000000200000100000200000,
000000000000000000000000000000100000200000100000,
000000000000000000000000000000200000100000200000,
100000000000100000000000000000100000100000000000,
100000000000100000000000000000100000200000000000,
100000000000100000000000000000100000100000000000,
100000000000100000000000000000100000200000000000,
100000000000100000000000100000100000100000000000,
100000000000100000000000100000100000100000000000,
200000200000200000000000100000000000200000000000,
100000000000100000000100000000000000000000000000,
000000000000000000000000000000100000200000100000,
000000000000000000000000000000200000100000200000,
100000000000100000000000000000100000100000000000,
100000000000100000000000000000100000200000000000,
100000000000100000000000000000100000100000000000,
100000000000100000000000000000100000200000000000,
100000000000100000000000100000100000100000000000,
100000000000100000000000100000100000100000000000,
200000200000200000000000100000000000200000000000,
100000000000100000000100000000000000000000000000,
100000000100000000100000000000000000200000000000,
100000000100000000100000000000200000200000000000,
100000000100000000100000000000000000200000000000,
100000100000200000000000100000000000200000000000,
100000100000200000000000100000000000000000500000,
000000000000000000000000000080000000000000000000,
#GOGOSTART
100000000000100000100000100000000100000000000000,
100000100000100000000000100000100000100000000000,
100000000000100000100000100000000100000000000000,
100000100000100000000000100000100000100000000000,
100000000000100000100000100000000100000000000000,
100000100000100000000000100000100000100000000000,
100000000000100000100000100000000100000000000000,
100000000000100000000000100000100000100000000000,
000000000000200000000000000000200000200000000000,
200000000000200000000000400000400000400000000000,
#GOGOEND
#END
COURSE:Easy
LEVEL:4
SCOREINIT:700
SCOREDIFF:220
#START
,
#GOGOSTART
100000000000200000000000100000000000000000000000,
100000000000000000000000100000100000100000000000,
100000000000200000000000100000000000000000000000,
100000000000000000000000100000100000100000000000,
100000000000200000000000100000000000000000000000,
100000000000000000000000100000100000100000000000,
100000000000200000000000100000000000000000000000,
100000000000000000000000100000100000100000000000,
#GOGOEND
000000000000000000000000000000100000100000000000,
000000000000000000000000000000200000200000000000,
000000000000000000000000000000100000100000000000,
000000000000000000000000000000200000200000000000,
100000000000000000000000000000100000100000000000,
100000000000000000000000000000200000200000000000,
100000000000000000000000000000100000100000000000,
100000000000000000000000000000200000200000000000,
100000000000100000000000100000100000100000000000,
200000000000200000000000200000200000200000000000,
100000000000100000000000100000100000100000000000,
100000000000100000000100000000000000000000000000,
000000000000000000000000000000100000200000000000,
000000000000000000000000000000200000100000000000,
100000000000000000000000000000100000100000000000,
100000000000000000000000000000200000200000000000,
100000000000000000000000000000100000100000000000,
100000000000000000000000000000200000200000000000,
100000000000100000000000100000100000100000000000,
200000000000200000000000200000200000200000000000,
100000000000100000000000100000100000100000000000,
100000000000100000000100000000000000000000000000,
100000000100000000100000000000000000000000000000,
200000000200000000200000000000000000000000000000,
100000000100000000100000000000000000000000000000,
100000000000100000000000000000200000000000000000,
100000000000100000000000000000000000500000000000,
000000000000000000000080000000000000000000000000,
#GOGOSTART
100000000000200000000000100000000000000000000000,
100000000000000000000000100000100000100000000000,
100000000000200000000000100000000000000000000000,
100000000000000000000000100000100000100000000000,
100000000000200000000000100000000000000000000000,
100000000000100000000000100000100000100000000000,
100000000000200000000000100000000000000000000000,
100000000000100000000000100000100000100000000000,
000000000000200000000000000000200000200000000000,
000000000000200000000000000000400000400000000000,
#GOGOEND
#END