Files
2023-06-15 19:00:23 -05:00

364 lines
13 KiB
Plaintext

//TJADB Project
TITLE:Ni Shih Wo De Hua Duo
TITLEJA:女尓是我的花朶
SUBTITLE:--Wu Bai & China Blue
BPM:133
WAVE:Ni Shih Wo De Hua Duo.ogg
OFFSET:-3.929
DEMOSTART:60.415
COURSE:Oni
LEVEL:8
BALLOON:12,12
SCOREINIT:760
SCOREDIFF:203
#START
100000000100
#BPMCHANGE 135
100000100100
#BPMCHANGE 142.5
000000100100
#BPMCHANGE 132
100000000000,
#BPMCHANGE 135.75
000200200000000200200000000200200000000200200000,
#BPMCHANGE 136.5
100000000100100000100100000000100100100000000000,
000200200000000200200000000200200000000200200000,
#BPMCHANGE 135.25
100000000100100000100100000000100100100000000000,
#BPMCHANGE 136
000200200000000200200000100000100000100000100000,
#BPMCHANGE 134.5
100000100100200000100100100000100000200000100000,
#BPMCHANGE 137.5
100000100100200000100100100000100100200000100100,
#BPMCHANGE 135
100000100100200000100100100000100100200000100100,
#BPMCHANGE 135.5
500000000000000000000000000000000008000000000000,
100000100100200000100100100000100000200000100000,
#BPMCHANGE 134.5
100000100100200000100100100000100100200000100100,
#BPMCHANGE 137.2
100000100100200000100100100000100100200000100100,
#BPMCHANGE 136.5
500000000000000000000000000000000008000000000000,
#BPMCHANGE 135
100000100000200000200000100100000100100000000000,
#BPMCHANGE 136
100000100000200000200000100100000100100000000000,
000000100000100000200000200000000000100000100000,
000000200000200000000000100100000100100000000000,
#BPMCHANGE 135.8
200000200000100000100000200200000200200000000000,
#BPMCHANGE 136
200000200000100000100000200200000200200000000000,
#BPMCHANGE 137.5
000000200000200000100000100000000000100000500000,
#BPMCHANGE 136
000000000000000000000000000000000008000000000000,
#BPMCHANGE 136.2
100000100000200000200000100100000100100000000000,
#BPMCHANGE 137
100000100000200000200000100100000100100000000000,
#BPMCHANGE 135
000000100000100000200000200000000000100000100000,
#BPMCHANGE 136.2
000000200000200000000000100100000100100000000000,
#BPMCHANGE 135
200000200000100000100000200200000200200000000000,
200000200000100000100000200200000200200000000000,
#BPMCHANGE 135.5
000000200000200000100000100000000000100000500000,
#BPMCHANGE 137.2
000000000000000000000000000000000008000000000000,
#BPMCHANGE 136.8
700000000000000000000000000000000000800000000000,
#BPMCHANGE 137
700000000000000000000000000000000000800000000000,
#GOGOSTART
#BPMCHANGE 135
100000100000200000100000100200000200200000200200,
100000100000200000100000100200000200200000200200,
#BPMCHANGE 136
100000100000200000200000100100000100100000100100,
200000200000100000100000200200000200200000200200,
#BPMCHANGE 135
100000100000200000100000100200000200200000200200,
#BPMCHANGE 137
100000100000200000100000100200000200200000200200,
#BPMCHANGE 136
100000100000200000200000100100000100100000100100,
#BPMCHANGE 136.5
500000000000000000000000000000000008000000000000,
#BPMCHANGE 137
100000100000200000100000100200000200200000200200,
#BPMCHANGE 135
100000100000200000100000100200000200200000200200,
#BPMCHANGE 136.5
100000100000200000200000100100000100100000100100,
#BPMCHANGE 133.5
200000200000100000100000200200000200200000200200,
#BPMCHANGE 137.2
100000100000200000100000100200000200200000200200,
#BPMCHANGE 136.5
100000100000200000100000100200000200200000200200,
#BPMCHANGE 135.8
100000100000200000200000100100000100100000100100,
500000000000000000000000000000000008000000000000,
#GOGOEND
#BPMCHANGE 126
100000100100
#BPMCHANGE 137
200000100100
#BPMCHANGE 136
100000100000
#BPMCHANGE 135
200000100000,
#BPMCHANGE 136
100000100100200000100100100000100100200000100100,
#BPMCHANGE 135
100000100100200000100100100000100100200000100100,
#BPMCHANGE 136
500000000000000000000000000000000008000000000000,
#BPMCHANGE 135.5
100000100100200000100100100000100000200000100000,
#BPMCHANGE 136
100000100100200000100100100000100100200000100100,
#BPMCHANGE 137
100000100100200000100100100000200000100000100000,
#BPMCHANGE 138
300000300000
#BPMCHANGE 139
300000300000300000000000000000000000,
#END
COURSE:Hard
LEVEL:4
BALLOON:11,11
SCOREINIT:860
SCOREDIFF:250
#START
100000000000000000100000000000100100100000000000,
000000200000000000200000000000200000000000200000,
100000000000000000100000000000100100100000000000,
000000200000000000200000000000200000000000200000,
100000000000000000100000000000100100100000000000,
000000200000000000200000000000200000000000200000,
100000000000100000100000000000100000100000000000,
100000000000100000100000000000100000100000000000,
100000000000100000100000000000100000100000000000,
500000000000000000000000000000800000000000000000,
200000000000200000200000000000200000200000000000,
200000000000200000200000000000200000200000000000,
200000000000200000200000000000200000200000000000,
500000000000000000000000000000800000000000000000,
100000100000200000200000000000000000000000000000,
100000100000200000200000000000000000000000000000,
000000100000100000200000200000000000100000100000,
000000200000200000000000000000000000000000000000,
200000200000100000100000000000000000000000000000,
200000200000100000100000000000000000000000000000,
000000200000200000100000100000000000100000500000,
000000000000000000000000000000800000000000000000,
100000100000200000200000000000000000200000000000,
100000100000200000200000000000000000200000000000,
000000100000100000200000200000000000100000100000,
000000200000200000000000000000000000000000000000,
200000200000100000100000000000000000100000000000,
200000200000100000100000000000000000100000000000,
000000200000200000100000100000000000100000500000,
000000000000000000000000000000800000000000000000,
700000000000000000000000000000800000000000000000,
700000000000000000000000000000800000000000000000,
#GOGOSTART
100000100000200000100000000000200000000000200000,
100000100000200000100000000000200000000000200000,
100000100000200000200000100100000100100000000000,
200000200000100000100000200200000200200000000000,
100000100000200000100000000000200000000000200000,
100000100000200000100000000000200000000000200000,
100000100000200000200000100100000100100000000000,
500000000000000000000000000000000800000000000000,
100000100000200000100000000000200000000000200000,
100000100000200000100000000000200000000000200000,
100000100000200000200000100100000100100000000000,
200000200000100000100000200200000200200000000000,
100000100000200000100000000000200000000000200000,
100000100000200000100000000000200000000000200000,
100000100000200000200000100100000100100000000000,
500000000000000000000000000000000800000000000000,
#GOGOEND
100000000000100000100000000000100000100000000000,
100000000000100000100000000000100000100000000000,
100000000000100000100000000000100000100000000000,
500000000000000000000000000000800000000000000000,
200000000000200000200000000000200000200000000000,
200000000000200000200000000000200000200000000000,
200000000000200000200000000000200000200000000000,
300000300000300000300000300000000000000000000000,
#END
COURSE:Normal
LEVEL:4
BALLOON:8,8
SCOREINIT:1130
SCOREDIFF:433
#START
100000000000000000100000000000000000100000000000,
000000000000200000000000000000000000200000000000,
100000000000000000100000000000000000100000000000,
000000000000200000000000000000000000200000000000,
100000000000000000100000000000000000100000000000,
000000000000200000000000000000000000200000000000,
100000000000100000000000000000100000100000000000,
100000000000100000000000000000100000100000000000,
100000000000100000000000000000100000100000000000,
500000000000000000000000000000800000000000000000,
200000000000200000000000000000200000200000000000,
200000000000200000000000000000200000200000000000,
200000000000200000000000000000200000200000000000,
500000000000000000000000000000800000000000000000,
100000000000100000000000000000000000100000000000,
100000000000100000000000000000000000100000000000,
000000000000100000000000100000000000000000000000,
500000000000000000000000000000800000000000000000,
200000000000200000000000000000000000200000000000,
200000000000200000000000000000000000200000000000,
000000000000200000000000200000000000000000500000,
000000000000000000000000000000800000000000000000,
100000100000100000000000000000000000100000000000,
100000100000100000000000000000000000100000000000,
000000000000100000000000100000000000000000000000,
500000000000000000000000000000800000000000000000,
200000200000200000000000000000000000200000000000,
200000200000200000000000000000000000200000000000,
000000000000200000000000200000000000000000500000,
000000000000000000000000000000800000000000000000,
700000000000000000000000000000800000000000000000,
700000000000000000000000000000800000000000000000,
#GOGOSTART
100000000000100000100000000000000000000000000000,
100000000000100000100000000000000000000000000000,
100000100000000000100000100000000000000000000000,
200000200000000000200000200000000000000000000000,
100000000000100000100000000000000000000000000000,
100000000000100000100000000000000000000000000000,
100000100000000000100000100000000000000000000000,
500000000000000000000000000000800000000000000000,
100000000000100000100000000000000000000000000000,
100000000000100000100000000000000000000000000000,
100000100000000000100000100000000000000000000000,
200000200000000000200000200000000000000000000000,
100000000000100000100000000000000000000000000000,
100000000000100000100000000000000000000000000000,
100000100000000000100000100000000000000000000000,
500000000000000000000000000000800000000000000000,
#GOGOEND
100000000000000000100000000000100000100000000000,
100000000000000000100000000000100000100000000000,
100000000000000000100000000000100000100000000000,
500000000000000000000000000000800000000000000000,
200000000000000000200000000000200000200000000000,
200000000000000000200000000000200000200000000000,
200000000000000000200000000000200000200000000000,
300000000000300000000000300000000000000000000000,
#END
COURSE:Easy
LEVEL:3
BALLOON:4,4
SCOREINIT:1090
SCOREDIFF:725
#START
100000000000000000100000000000000000000000000000,
000000000000000000000000000000000000000000000000,
100000000000000000100000000000000000000000000000,
000000000000000000000000000000000000000000000000,
100000000000000000100000000000000000000000000000,
000000000000000000000000000000000000000000000000,
100000000000000000000000000000000000100000000000,
100000000000000000000000000000000000100000000000,
100000000000000000000000000000000000100000000000,
500000000000000000000000800000000000000000000000,
100000000000000000000000000000000000100000000000,
100000000000000000000000000000000000100000000000,
100000000000000000000000000000000000100000000000,
500000000000000000000000800000000000000000000000,
100000000000100000000000000000000000000000000000,
100000000000100000000000000000000000000000000000,
000000000000100000000000100000000000000000000000,
500000000000000000000000800000000000000000000000,
200000000000200000000000000000000000000000000000,
200000000000200000000000000000000000000000000000,
000000000000200000000000200000000000000000500000,
000000000000000000000000800000000000000000000000,
100000000000000000100000000000000000000000000000,
100000000000000000100000000000000000000000000000,
000000000000100000000000100000000000000000000000,
500000000000000000000000800000000000000000000000,
200000000000000000200000000000000000000000000000,
200000000000000000200000000000000000000000000000,
000000000000200000000000200000000000000000500000,
000000000000000000000000800000000000000000000000,
700000000000000000000000000000800000000000000000,
700000000000000000000000000000800000000000000000,
#GOGOSTART
100000000000100000000000100000000000000000000000,
100000000000100000000000000000000000000000000000,
100000000000100000000000100000000000000000000000,
200000000000200000000000200000000000000000000000,
100000000000100000000000100000000000000000000000,
100000000000100000000000000000000000000000000000,
100000000000100000000000100000000000000000000000,
500000000000000000000000800000000000000000000000,
100000000000100000000000100000000000000000000000,
100000000000100000000000000000000000000000000000,
100000000000100000000000100000000000000000000000,
200000000000200000000000200000000000000000000000,
100000000000100000000000100000000000000000000000,
100000000000100000000000000000000000000000000000,
100000000000100000000000100000000000000000000000,
500000000000000000000000800000000000000000000000,
#GOGOEND
100000000000000000000000000000000000100000000000,
100000000000000000000000000000000000100000000000,
100000000000000000000000000000000000100000000000,
500000000000000000000000800000000000000000000000,
100000000000000000000000000000000000100000000000,
100000000000000000000000000000000000100000000000,
100000000000000000000000000000000000100000000000,
300000000000000000000000300000000000000000000000,
#END