forked from ESE/ESE
417 lines
5.5 KiB
Plaintext
417 lines
5.5 KiB
Plaintext
//TJADB Project
|
|
TITLE:Omae Butamen!
|
|
TITLEJA:おまえブタメン!
|
|
SUBTITLE:--Oyatsu Company & The Puh
|
|
SUBTITLEJA:おやつカンパニー & ザ・ぷー
|
|
BPM:150
|
|
WAVE:Omae Butamen!.ogg
|
|
OFFSET:-1.748
|
|
DEMOSTART:49.746
|
|
|
|
COURSE:Oni
|
|
LEVEL:7
|
|
BALLOON:5,5,5,8,5,16,4,4,4,8
|
|
SCOREINIT:620
|
|
SCOREDIFF:148
|
|
|
|
|
|
#START
|
|
|
|
|
|
1000100010010010,
|
|
1022100010221020,
|
|
1000100010010010,
|
|
1022100010221020,
|
|
1000100010010010,
|
|
1022100010221020,
|
|
|
|
#GOGOSTART
|
|
31112222,
|
|
1010100100004000,
|
|
|
|
#GOGOEND
|
|
00127081,
|
|
0012102070008000,
|
|
0000100010121020,
|
|
1012102070008000,
|
|
0000101210000020,
|
|
1000101210100000,
|
|
10121012,
|
|
12700080,
|
|
0010101010001011,
|
|
1011101000000000,
|
|
1020102210102050,
|
|
000000000000000000000000000008000000000000000000,
|
|
1020102210100050,
|
|
000000000000000000000000000008000000000000000000,
|
|
0020002210001022,
|
|
1000102210200020,
|
|
1020202210201022,
|
|
1000102010222020,
|
|
0020102210101022,
|
|
1020202210202020,
|
|
1020102200201020,
|
|
1120112010222000,
|
|
|
|
#GOGOSTART
|
|
1020122010210020,
|
|
1111102021020020,
|
|
1020122010210020,
|
|
1011102020120020,
|
|
1020122010210020,
|
|
1111102021020020,
|
|
1020122010210020,
|
|
1011102020120020,
|
|
31112222,
|
|
1010100100004000,
|
|
|
|
#GOGOEND
|
|
12001200,
|
|
100000002000100020002000100020002000100000000200,
|
|
7000800010021212,
|
|
1200100700000000,
|
|
0802,
|
|
1122100000000020,
|
|
100100000000101020201000,
|
|
100020002000100010005000000000000008000000000000,
|
|
|
|
#GOGOSTART
|
|
31112222,
|
|
1010100100004000,
|
|
|
|
#GOGOEND
|
|
10127082,
|
|
0022102070008000,
|
|
0000102210200022,
|
|
1021102070008000,
|
|
00121002,
|
|
1021102010200000,
|
|
1000102210001020,
|
|
12700080,
|
|
0010111020002022,
|
|
1011101002202000,
|
|
1020102210102050,
|
|
000000000000000000000000000008000000200000000000,
|
|
1020102210100050,
|
|
000000000000000000000000000008000000400000000000,
|
|
|
|
#GOGOSTART
|
|
1020122010210020,
|
|
1111102021020020,
|
|
1020122010210020,
|
|
1011102020120020,
|
|
1020122010210020,
|
|
1111102021020020,
|
|
1020122010210020,
|
|
1011102020120020,
|
|
31112222,
|
|
1010100100004000,
|
|
|
|
#GOGOEND
|
|
|
|
|
|
#END
|
|
|
|
|
|
COURSE:Hard
|
|
LEVEL:5
|
|
BALLOON:3,3,3,8
|
|
SCOREINIT:490
|
|
SCOREDIFF:130
|
|
|
|
|
|
#START
|
|
|
|
|
|
1111,
|
|
1000100020020020,
|
|
1111,
|
|
1000100020020020,
|
|
1111,
|
|
1000100020020020,
|
|
|
|
#GOGOSTART
|
|
31102220,
|
|
1010100100004000,
|
|
|
|
#GOGOEND
|
|
00207081,
|
|
01207080,
|
|
00201121,
|
|
1278,
|
|
00211001,
|
|
10211100,
|
|
10201021,
|
|
11700080,
|
|
01111012,
|
|
11110000,
|
|
10201105,
|
|
000000000000000000000000000008000000000000000000,
|
|
10201105,
|
|
000000000000000000000000000008000000000000000000,
|
|
02021011,
|
|
10121202,
|
|
12221011,
|
|
1000101010222020,
|
|
02101110,
|
|
12221000,
|
|
12120212,
|
|
1000100010222000,
|
|
|
|
#GOGOSTART
|
|
3000300030030000,
|
|
1110100040040000,
|
|
3000300030030000,
|
|
1011100040040000,
|
|
3000300030030000,
|
|
1110100040040000,
|
|
6,
|
|
000000000008000000000000400000000400000000000000,
|
|
31102220,
|
|
1010100100004000,//40
|
|
|
|
#GOGOEND
|
|
1111,
|
|
1011100020222020,
|
|
1111,
|
|
1011100020222020,
|
|
1111,
|
|
1011100020222020,
|
|
1111,
|
|
1011100020222000,//48
|
|
|
|
#GOGOSTART
|
|
31102220,
|
|
1010100100004000,//50
|
|
|
|
#GOGOEND
|
|
000000000000100000200000500000000008000000200000,
|
|
000000200000100000200000500000000000000008000000,
|
|
00101202,
|
|
100000200000100000000000500000000000000008000000,
|
|
00121002,
|
|
10121200,
|
|
10101012,
|
|
100000200000500000000000000000000000000008000000,
|
|
01102022,
|
|
1010101000222000,
|
|
10201105,
|
|
000000000000000000000000000008000000000000000000,
|
|
10201105,
|
|
000000000000000000000000000008000000000000000000,//64
|
|
|
|
#GOGOSTART
|
|
3000300030030000,
|
|
1110100040040000,
|
|
3000300030030000,
|
|
1011100040040000,
|
|
3000300030030000,
|
|
1110100040040000,
|
|
3000300030030000,
|
|
1011101040040000,
|
|
31102220,
|
|
1010100100004000,//74
|
|
|
|
#GOGOEND
|
|
,
|
|
,
|
|
,
|
|
#END
|
|
|
|
COURSE:Normal
|
|
LEVEL:4
|
|
|
|
#START
|
|
1110,
|
|
1120,
|
|
1110,
|
|
1120,
|
|
1110,
|
|
1220,//6
|
|
|
|
#GOGOSTART
|
|
31101110,
|
|
1104,//8
|
|
|
|
#GOGOEND
|
|
00101001,
|
|
01101000,
|
|
00101001,
|
|
1110,
|
|
00101001,
|
|
10111000,
|
|
10101011,
|
|
500000000000000000000000000000000000000000000008,
|
|
,
|
|
,
|
|
10101105,
|
|
000000000000000000000000000008000000000000000000,
|
|
10101105,
|
|
000000000000000000000000000008000000000000000000,
|
|
01001000,
|
|
10111000,
|
|
10101110,
|
|
20222000,
|
|
01101010,
|
|
11101000,
|
|
11100110,
|
|
1114,//30
|
|
|
|
#GOGOSTART
|
|
3330,
|
|
34,
|
|
3330,
|
|
34,
|
|
3330,
|
|
34,
|
|
6,
|
|
000000000008000000000000400000000000000000000000,
|
|
31101110,
|
|
1104,//40
|
|
|
|
#GOGOEND
|
|
1110,
|
|
1120,
|
|
1110,
|
|
1120,
|
|
1110,
|
|
1220,
|
|
1110,
|
|
1220,//48
|
|
|
|
#GOGOSTART
|
|
3110111,
|
|
1104,//50
|
|
|
|
#GOGOEND
|
|
00101001,
|
|
01101000,
|
|
00101101,
|
|
10111000,
|
|
00111001,
|
|
10111000,
|
|
10101011,
|
|
500000000000000000000000000000000000000000000008,
|
|
,
|
|
,
|
|
10101105,
|
|
00000800,
|
|
10101105,
|
|
00000800,//64
|
|
|
|
#GOGOSTART
|
|
3330,
|
|
34,
|
|
3330,
|
|
34,
|
|
3330,
|
|
34,
|
|
6,
|
|
000000000008000000000000400000000000000000000000,
|
|
31101110,
|
|
1104,//74
|
|
|
|
#GOGOEND
|
|
,
|
|
,
|
|
,
|
|
#END
|
|
|
|
COURSE:Easy
|
|
LEVEL:3
|
|
|
|
#START
|
|
1110,
|
|
12,
|
|
1110,
|
|
12,
|
|
1110,
|
|
12,//6
|
|
|
|
#GOGOSTART
|
|
31,
|
|
1104,//8
|
|
|
|
#GOGOEND
|
|
0110,
|
|
0110,
|
|
0110,
|
|
1110,
|
|
0110,
|
|
1110,
|
|
1111,
|
|
500000000000000000000000000000000000000000000008,
|
|
,
|
|
,
|
|
10101005,
|
|
000000000000000000000000000008000000000000000000,
|
|
10101005,
|
|
000000000000000000000000000008000000000000000000,
|
|
11,
|
|
1110,
|
|
1110,
|
|
2220,
|
|
11,
|
|
1110,
|
|
1101,
|
|
1110,//30
|
|
|
|
#GOGOSTART
|
|
3330,
|
|
34,
|
|
3330,
|
|
34,
|
|
3330,
|
|
34,
|
|
6,
|
|
000000000008000000000000400000000000000000000000,
|
|
31,
|
|
1104,//40
|
|
|
|
#GOGOEND
|
|
1110,
|
|
12,
|
|
1110,
|
|
12,
|
|
1110,
|
|
12,
|
|
1110,
|
|
12,//48
|
|
|
|
#GOGOSTART
|
|
31,
|
|
1104,//50
|
|
|
|
#GOGOEND
|
|
0110,
|
|
0110,
|
|
0110,
|
|
1110,
|
|
0110,
|
|
1110,
|
|
1111,
|
|
500000000000000000000000000000000000000000000008,
|
|
,
|
|
,
|
|
10101005,
|
|
000000000000000000000000000008000000000000000000,
|
|
10101005,
|
|
000000000000000000000000000008000000000000000000,//64
|
|
|
|
#GOGOSTART
|
|
3330,
|
|
34,
|
|
3330,
|
|
34,
|
|
3330,
|
|
34,
|
|
600000000000000000000000000000000000000000000008,
|
|
04,
|
|
31,
|
|
1104,//74
|
|
|
|
#GOGOEND
|
|
,
|
|
,
|
|
,
|
|
#END |