Files
2023-06-15 19:15:39 -05:00

698 lines
22 KiB
Plaintext

//TJADB Project
TITLE:Omatsuri Ninja
TITLEJA:お祭り忍者
SUBTITLE:--Ninja
BPM:130
WAVE:Omatsuri Ninja.ogg
OFFSET:-2.442
DEMOSTART:70.754
COURSE:Oni
LEVEL:8
BALLOON:14,14
#START
,
1022201010222010,
1022102210104000,
3010201101012010,
1120201100101020,
1010201101012010,
1120201100101020,
1010201101012010,
1120201100303020,
11221122,
1122112212121212,
11011010,
1110500000000000,
000000000000000000000008000000000000000000000000,
1010102101100000,
1010102101100000,
#SECTION
#BRANCHSTART p,75,90
#N
1001201010012000,
1010100010222000,
1001201010012000,
1010102000222020,
1001201010012000,
1011101020001010,
10202011,
1000200010222000,
#E
1001201010012010,
1011201010222010,
1001201010012010,
1011202000222020,
1001201010012010,
1011101010222020,
1001201110012010,
1001201110221020,
#M
1001201210112010,
1011202210222010,
1001201210112010,
1011202110222020,
1001201210112010,
1011202210222010,
1011202110112021,
1011201110221020,
#SECTION
#BRANCHSTART p,75,90
#N
1001201010012010,
1000200010222000,
1001201010012010,
22070000,
8,
#E
1001201010012010,
1000200020222020,
1001201010012010,
22070000,
8,
#M
1001201210211020,
1000200020222020,
1001201210211020,
200000200000000000500000000000000000000000000008,
,
#GOGOSTART
#SECTION
#BRANCHSTART p,75,90
#N
1001101010101000,
1002202020202000,
1001101010101000,
1002202020202000,
33,
0011101010101000,
500000000000000000000000000000000000000000000008,
0000202010222020,
#E
1001201010112022,
1002202020222020,
1001201010112022,
1002202020222020,
3022200030222000,
0011101020201010,
500000000000000000000000000000000000000000000008,
0000202011222020,
#M
1001201210211022,
1002102210121020,
1001201210211022,
1002102210121020,
3022200030222000,
0021101022112210,
500000000000000000000000000000000000000008000000,
0111202012102100,
#SECTION
#BRANCHSTART p,75,90
#N
1001101010101000,
1002202020202000,
1001101010101000,
1002202020202000,
1011101110111010,
3111,
5,
000000000000000000000008000000000000000000000000,
#E
1001201010112022,
1002202020222020,
1001201010112022,
1002202020222020,
1022102210221020,
3000001010101110,
5,
000000000000000000000008000000000000000000000000,
#M
1001201210211022,
1002102210121020,
1001201210211022,
1002102210121020,
1022102210221020,
3000001010101110,
5,
000000000000000000000008000000000000000000000000,
#BRANCHEND
#GOGOEND
#END
COURSE:Hard
LEVEL:5
STYLE:Double
BALLOON:10,11
SCOREINIT:880
SCOREDIFF:170
#START P1
000000000000000000000000000000000000000000000000,
100000100100100000000000100000100100100000000000,
100000100100100000100100100000000000300000000000,
300000000000200000100100000100000100200000000000,
100100100000200000100100000000300000300000000000,
100000000000200000100100000100000100200000000000,
100100100000200000100100000000400000400000000000,
100000000000200000100100000100000100200000000000,
100100100000200000100100000000300000300000000000,
100000000000000000000000100000000000100000000000,
100000100000100000100000100100100000100100100000,
300000000000000000000000100000000000100000000000,
100000100000500000000000000000000000000000000000,
000000000000000000000800000000000000000000000000,
100000100000100000200100000100100000000000000000,
100000100000100000200100000100100000000000000000,
100000000100200000100000100000000100200000000000,
100000100000100000000000100000200200200000000000,
100000000100200000100000100000000100200000100000,
100000100000100000200000000000200200200000200000,
100000000100200000100000100000000100200000000000,
100000100100100000100000200000000000100000100000,
100000000000200000000000200000000000100000100000,
100000000000200000000000100000200200200000000000,
100000000100200000100000100000000100200000100000,
100000000000200000000000100000200200200000000000,
100000000100200000100000100000000100200000100000,
200000200000000000700000000000000000000000000000,
000000000000000000000000000000000800000000000000,
#GOGOSTART
1001101010222020,
1001201011102000,
1001101010222020,
1001201011102000,
300000000000000000000000300000000000000000000000,
000000100100100000100000100000100000100000000000,
500000000000000000000000000000000000000000000800,
000000000000200000200000100000200200200000200000,
1001201011102000,
1002202020222020,
1001201011102000,
1002202020222020,
100000100100100000100100100000100100100000100000,
300000000000000000000000100000000000100100100000,
900000000000000000000000000000000000000000000000,
000000000000000000000800000000000000000000000000,
#GOGOEND
#END
#START P2
000000000000000000000000000000000000000000000000,
100000100100100000000000100000100100100000000000,
100000100100100000100100100000000000300000000000,
300000000000200000100100000100000100200000000000,
100100100000200000100100000000300000300000000000,
100000000000200000100100000100000100200000000000,
100100100000200000100100000000400000400000000000,
100000000000200000100100000100000100200000000000,
100100100000200000100100000000300000300000000000,
100000000000000000000000100000000000100000000000,
100000100000100000100000100100100000100100100000,
300000000000000000000000100000000000100000000000,
100000100000500000000000000000000000000000000000,
000000000000000000000800000000000000000000000000,
100000100000100000200100000100100000000000000000,
100000100000100000200100000100100000000000000000,
100000000100200000100000100000000100200000000000,
100000100000100000000000100000200200200000000000,
100000000100200000100000100000000100200000100000,
100000100000100000200000000000200200200000200000,
100000000100200000100000100000000100200000000000,
100000100100100000100000200000000000100000100000,
100000000000200000000000200000000000100000100000,
100000000000200000000000100000200200200000000000,
100000000100200000100000100000000100200000100000,
100000000000200000000000100000200200200000000000,
100000000100200000100000100000000100200000100000,
200000200000000000700000000000000000000000000000,
000000000000000000000000000000000800000000000000,
#GOGOSTART
1001201011102000,
1002202020222020,
1001201011102000,
1002202020222020,
300000000000000000000000300000000000000000000000,
000000100100100000100000100000100000100000000000,
500000000000000000000000000000000000000000000800,
000000000000200000200000100000200200200000200000,
1001101010222020,
1001201011102000,
1001101010222020,
1001201011102000,
100000100100100000100100100000100100100000100000,
300000000000000000000000100000000000100100100000,
900000000000000000000000000000000000000000000000,
000000000000000000000800000000000000000000000000,
#GOGOEND
#END
STYLE:Single
BALLOON:10
SCOREINIT:920
SCOREDIFF:190
#START
000000000000000000000000000000000000000000000000,
100000100100100000000000100000100100100000000000,
100000100100100000100100100000000000300000000000,
300000000000200000100100000100000100200000000000,
100100100000200000100100000000100000100000000000,
100000000000200000100100000100000100200000000000,
100100100000200000100100000000100000100000000000,
100000000000200000100100000100000100200000000000,
100100100000200000100100000000300000300000000000,
100000000000000000000000100000000000100000000000,
100000100000100000100000100100100000100100100000,
300000000000000000000000100000000000100000000000,
100000100000500000000000000000000000000000000000,
000000000000000000000800000000000000000000000000,
100000100000100000200100000100100000000000000000,
100000100000100000200100000100100000000000000000,
100000000100200000100000100000000100200000000000,
100000100000100000000000100000200200200000000000,
100000000100200000100000100000000100200000100000,
100000100000100000200000000000200200200000200000,
100000000100200000100000100000000100200000000000,
100000100100100000100000200000000000100000100000,
100000000000200000000000200000000000100000100000,
100000000000200000000000100000200200200000000000,
100000000100200000100000100000000100200000100000,
100000000000200000000000100000200200200000000000,
100000000100200000100000100000000100200000100000,
200000200000000000700000000000000000000000000000,
000000000000000000000000000000000800000000000000,
#GOGOSTART
100000000100100000100000100000100000100000000000,
100000000200200000200000200000200000200000000000,
100000000100100000100000100000100000100000000000,
100000000200200000200000200000200000200000000000,
300000000000000000000000300000000000000000000000,
000000100100100000100000100000100000100000000000,
500000000000000000000000000000000000000000000800,
000000000000200000200000100000200200200000200000,
100000000100100000100000100000100000100000000000,
100000000200200000200000200000200000200000000000,
100000000100100000100000100000100000100000000000,
100000000200200000200000200000200000200000000000,
100000100100100000100100100000100100100000100000,
300000000000100000000000100000000000100000000000,
500000000000000000000000000000000000000000000000,
000000000000000000000800000000000000000000000000,
#GOGOEND
#END
COURSE:Normal
LEVEL:4
STYLE:Double
BALLOON:10,12
SCOREINIT:970
#START P1
000000000000000000000000000000000000000000000000,
500000000000000000000000000000000000000000000000,
000000000000000000800000000000000000000000000000,
300000000000200000000100000100000000000000000000,
100000000000200000000000000000100000100000000000,
100000000000200000000100000100000000000000000000,
100000000000200000000000000000100000100000000000,
100000000000200000000100000100000000000000000000,
100000000000200000000000000000300000300000000000,
100000000000000000000000100000000000000000000000,
100000000000200000000000100000000000200000000000,
300000000000000000000000100000000000100000000000,
500000000000000000000000000000000000000000000000,
000000000000000000800000000000000000000000000000,
100000100000100000100100000000000000000000000000,
100000100000100000100100000000000000000000000000,
100000000000200000000000100000100000100000000000,
100000000000000000000000000000200000200000000000,
100000000000200000000000100000100000100000000000,
100000000000000000000000000000200000200000000000,
100000000000200000000000100000100000100000000000,
100000000000000000000000000000000000100000100000,
100000000000200000000000200000000000100000100000,
100000000000200000000000200000000000000000000000,
100000000000100000000000200000000000100000100000,
100000000000200000000000200000000000000000000000,
100000000000100000000000200000000000100000100000,
200000200000000000700000000000000000000000000000,
000000000000000000000000000000800000000000000000,
#GOGOSTART
1001100010101000,
1000200011101000,
1001100010101000,
1000200011101000,
300000000000000000000000300000000000000000000000,
000000100000100000000000100000000000100000000000,
500000000000000000000000000000000000000000800000,
000000000000000000000000000000000000000000000000,
1000200011101000,
1002200020202000,
1000200011101000,
1002200020202000,
100000000000100000000000100000000000100000000000,
300000000000000000000000100000000000100000000000,
900000000000000000000000000000000000000000000000,
000000000000000000800000000000000000000000000000,
#GOGOEND
#END
#START P2
000000000000000000000000000000000000000000000000,
500000000000000000000000000000000000000000000000,
000000000000000000800000000000000000000000000000,
300000000000200000000100000100000000000000000000,
100000000000200000000000000000100000100000000000,
100000000000200000000100000100000000000000000000,
100000000000200000000000000000100000100000000000,
100000000000200000000100000100000000000000000000,
100000000000200000000000000000300000300000000000,
100000000000000000000000100000000000000000000000,
100000000000200000000000100000000000200000000000,
300000000000000000000000100000000000100000000000,
500000000000000000000000000000000000000000000000,
000000000000000000800000000000000000000000000000,
100000100000100000100100000000000000000000000000,
100000100000100000100100000000000000000000000000,
100000000000200000000000100000100000100000000000,
100000000000000000000000000000200000200000000000,
100000000000200000000000100000100000100000000000,
100000000000000000000000000000200000200000000000,
100000000000200000000000100000100000100000000000,
100000000000000000000000000000000000100000100000,
100000000000200000000000200000000000100000100000,
100000000000200000000000200000000000000000000000,
100000000000100000000000200000000000100000100000,
100000000000200000000000200000000000000000000000,
100000000000100000000000200000000000100000100000,
200000200000000000700000000000000000000000000000,
000000000000000000000000000000800000000000000000,
#GOGOSTART
1000200011101000,
1002200020202000,
1000200011101000,
1002200020202000,
300000000000000000000000300000000000000000000000,
000000100000100000000000100000000000100000000000,
500000000000000000000000000000000000000000800000,
000000000000000000000000000000000000000000000000,
1001100010101000,
1000200011101000,
1001100010101000,
1000200011101000,
100000000000100000000000100000000000100000000000,
300000000000000000000000100000000000100000000000,
900000000000000000000000000000000000000000000000,
000000000000000000800000000000000000000000000000,
#GOGOEND
#END
STYLE:Single
BALLOON:10
SCOREINIT:1000
SCOREDIFF:320
#START
000000000000000000000000000000000000000000000000,
500000000000000000000000000000000000000000000000,
000000000000000000800000000000000000000000000000,
300000000000200000000100000100000000000000000000,
100000000000200000000000000000100000100000000000,
100000000000200000000100000100000000000000000000,
100000000000200000000000000000100000100000000000,
100000000000200000000100000100000000000000000000,
100000000000200000000000000000300000300000000000,
100000000000000000000000100000000000000000000000,
100000000000200000000000100000000000200000000000,
300000000000000000000000100000000000100000000000,
500000000000000000000000000000000000000000000000,
000000000000000000800000000000000000000000000000,
100000100000100000100100000000000000000000000000,
100000100000100000100100000000000000000000000000,
100000000000200000000000100000100000100000000000,
100000000000000000000000000000200000200000000000,
100000000000200000000000100000100000100000000000,
100000000000000000000000000000200000200000000000,
100000000000200000000000100000100000100000000000,
100000000000000000000000000000000000100000100000,
100000000000200000000000200000000000100000100000,
100000000000200000000000200000000000000000000000,
100000000000100000000000200000000000100000100000,
100000000000200000000000200000000000000000000000,
100000000000100000000000200000000000100000100000,
200000200000000000700000000000000000000000000000,
000000000000000000000000000000800000000000000000,
#GOGOSTART
100000000100100000000000100000000000100000000000,
100000000200200000000000200000000000200000000000,
100000000100100000000000100000000000100000000000,
100000000200200000000000200000000000200000000000,
300000000000000000000000300000000000000000000000,
000000100000100000000000100000000000100000000000,
500000000000000000000000000000000000000000800000,
000000000000000000000000000000000000000000000000,
100000000100100000000000100000100000100000000000,
100000000200200000000000200000200000200000000000,
100000000100100000000000100000100000100000000000,
100000000200200000000000200000200000200000000000,
100000000000100000000000100000000000100000000000,
300000000000000000000000100000000000100000000000,
500000000000000000000000000000000000000000000000,
000000000000000000800000000000000000000000000000,
#GOGOEND
#END
COURSE:Easy
LEVEL:4
STYLE:Double
BALLOON:12
SCOREINIT:1320
#START P1
000000000000000000000000000000000000000000000000,
500000000000000000000000000000000000000000000000,
000000000000000000800000000000000000000000000000,
300000000000000000000000100000000000200000000000,
100000000000000000000000000000100000100000000000,
100000000000000000000000100000000000200000000000,
100000000000000000000000000000100000100000000000,
100000000000000000000000100000000000200000000000,
100000000000000000000000000000300000300000000000,
100000000000000000000000100000000000000000000000,
100000000000100000000000100000000000100000000000,
300000000000000000000000100000000000100000000000,
500000000000000000000000000000000000000000000000,
000000000000000000800000000000000000000000000000,
000000000000000000000000000000000000000000000000,
000000000000000000000000000000000000000000000000,
100000000000000000000000200000000000000000000000,
100000000000100000100000100000000000000000000000,
100000000000000000000000200000000000000000000000,
100000100000100000000000200000000000000000000000,
100000000000000000000000200000000000000000000000,
100000000000100000100000100000000000000000000000,
100000000000100000000000100000000000000000000000,
200000000000200000000000200000000000000000000000,
100000000000100000000000100000000000000000000000,
100000000000200000000000200000000000000000000000,
100000000000100000000000100000000000100000000000,
500000000000000000000000000000000000000000800000,
000000000000000000000000000000000000000000000000,
#GOGOSTART
1011,
1,
1011,
1,
300000000000000000000000300000000000000000000000,
000000100000100000000000100000000000100000000000,
500000000000000000000000000000000000000000800000,
000000000000000000000000000000000000000000000000,
1,
00002220,
1,
00002220,
100000000000100000000000100000000000100000000000,
300000000000000000000000100000000000100000000000,
900000000000000000000000000000000000000000000000,
000000000000000000800000000000000000000000000000,
#GOGOEND
#END
#START P2
000000000000000000000000000000000000000000000000,
500000000000000000000000000000000000000000000000,
000000000000000000800000000000000000000000000000,
300000000000000000000000100000000000200000000000,
100000000000000000000000000000100000100000000000,
100000000000000000000000100000000000200000000000,
100000000000000000000000000000100000100000000000,
100000000000000000000000100000000000200000000000,
100000000000000000000000000000300000300000000000,
100000000000000000000000100000000000000000000000,
100000000000100000000000100000000000100000000000,
300000000000000000000000100000000000100000000000,
500000000000000000000000000000000000000000000000,
000000000000000000800000000000000000000000000000,
000000000000000000000000000000000000000000000000,
000000000000000000000000000000000000000000000000,
100000000000000000000000200000000000000000000000,
100000000000100000100000100000000000000000000000,
100000000000000000000000200000000000000000000000,
100000100000100000000000200000000000000000000000,
100000000000000000000000200000000000000000000000,
100000000000100000100000100000000000000000000000,
100000000000100000000000100000000000000000000000,
200000000000200000000000200000000000000000000000,
100000000000100000000000100000000000000000000000,
100000000000200000000000200000000000000000000000,
100000000000100000000000100000000000100000000000,
500000000000000000000000000000000000000000800000,
000000000000000000000000000000000000000000000000,
#GOGOSTART
1,
1022,
1,
1022,
300000000000000000000000300000000000000000000000,
000000100000100000000000100000000000100000000000,
500000000000000000000000000000000000000000800000,
000000000000000000000000000000000000000000000000,
10001110,
,
10001110,
,
100000000000100000000000100000000000100000000000,
300000000000000000000000100000000000100000000000,
900000000000000000000000000000000000000000000000,
000000000000000000800000000000000000000000000000,
#GOGOEND
#END
STYLE:Single
SCOREINIT:1200
SCOREDIFF:520
#START
000000000000000000000000000000000000000000000000,
500000000000000000000000000000000000000000000000,
000000000000000000800000000000000000000000000000,
300000000000000000000000100000000000200000000000,
100000000000000000000000000000100000100000000000,
100000000000000000000000100000000000200000000000,
100000000000000000000000000000100000100000000000,
100000000000000000000000100000000000200000000000,
100000000000000000000000000000300000300000000000,
100000000000000000000000100000000000000000000000,
100000000000100000000000100000000000100000000000,
300000000000000000000000100000000000100000000000,
500000000000000000000000000000000000000000000000,
000000000000000000800000000000000000000000000000,
000000000000000000000000000000000000000000000000,
000000000000000000000000000000000000000000000000,
100000000000000000000000200000000000000000000000,
100000000000100000100000100000000000000000000000,
100000000000000000000000200000000000000000000000,
100000100000100000000000200000000000000000000000,
100000000000000000000000200000000000000000000000,
100000000000100000100000100000000000000000000000,
100000000000100000000000100000000000000000000000,
200000000000200000000000200000000000000000000000,
100000000000100000000000100000000000000000000000,
100000000000200000000000200000000000000000000000,
100000000000100000000000100000000000100000000000,
500000000000000000000000000000000000000000800000,
000000000000000000000000000000000000000000000000,
#GOGOSTART
100000000000000000000000100000000000100000000000,
100000000000000000000000200000000000200000000000,
100000000000000000000000100000000000100000000000,
100000000000000000000000200000000000200000000000,
300000000000000000000000300000000000000000000000,
000000100000100000000000100000000000100000000000,
500000000000000000000000000000000000000000800000,
000000000000000000000000000000000000000000000000,
100000000000000000000000100000100000100000000000,
000000000000000000000000200000200000200000000000,
100000000000000000000000100000100000100000000000,
000000000000000000000000200000200000200000000000,
100000000000100000000000100000000000100000000000,
300000000000000000000000100000000000100000000000,
500000000000000000000000000000000000000000000000,
000000000000000000800000000000000000000000000000,
#GOGOEND
#END